<?xml version="1.0" standalone="no"?>
<!DOCTYPE svg PUBLIC "-//W3C//DTD SVG 1.1//EN" "http://www.w3.org/Graphics/SVG/1.1/DTD/svg11.dtd" >
<svg xmlns="http://www.w3.org/2000/svg" xmlns:xlink="http://www.w3.org/1999/xlink" version="1.1">
<metadata>
Created by FontForge 20170731 at Thu Jul  3 18:07:08 2008
 By Aleksey,,,
Part of the digitally encoded machine readable outline data for producing the Typefaces provided is copyrighted (c) 1988 - 2007 Linotype GmbH, www.linotype.com. All rights reserved. This software is the property of Linotype GmbH, and may not be reproduced, used, displayed, modified, disclosed or transferred without the express written approval of Linotype GmbH. The digitally encoded machine readable software for producing the Typefaces licensed to you is copyrighted (c) 1989, 1990 Adobe Systems. All Rights Reserved. This software is the property of Adobe Systems Incorporated and its licensors, and may not be reproduced, used, displayed, modified, disclosed or transferred without the express written approval of Adobe.
</metadata>
<defs>
<font id="JannaLT-Bold" horiz-adv-x="0" >
  <font-face 
    font-family="Janna LT"
    font-weight="700"
    font-stretch="normal"
    units-per-em="1000"
    panose-1="1 0 0 0 0 0 0 0 0 0"
    ascent="764"
    descent="-236"
    x-height="480"
    cap-height="708"
    bbox="-193 -575 1279 1268"
    underline-thickness="24"
    underline-position="-85"
    unicode-range="U+000D-FEFC"
  />
<missing-glyph horiz-adv-x="505" 
d="M219 115v66h55v-66h-55zM222 231l-2 16q0 28 3.5 48t8.5 32q13 25 47 59q15 15 25 26.5t14 19.5q9 18 9 35q0 35 -22 60q-21 24 -53 24q-30 0 -52.5 -21t-28.5 -72l-48 7q6 70 43 103t89 33q27 0 48.5 -9.5t38.5 -26.5q36 -36 36 -94q0 -31 -13 -58q-10 -22 -49 -60
q-35 -32 -43 -51q-6 -18 -6 -71h-45zM456 49v608h-407v-608h407zM505 708v-708h-505v708h505z" />
    <glyph glyph-name="uniFEF5" unicode="&#xfedf;&#xfe82;" horiz-adv-x="680" arabic-form="isolated" 
d="M590 716v-716h-561v116h205v413h114v-413h128v600h114zM59 673q26 30 50.5 40.5t48.5 10.5q15 0 38 -8.5t48 -19.5q26 -11 50.5 -20.5t44.5 -9.5q22 0 35 15t20 33l48 -22q-19 -46 -42 -64.5t-65 -18.5q-23 0 -45.5 8.5t-45.5 19.5t-45 19.5t-46 8.5q-14 0 -29 -7.5
t-29 -19.5z" />
    <glyph glyph-name="uniFEF6" unicode="&#xfee0;&#xfe82;" horiz-adv-x="712" arabic-form="final" 
d="M677 0q-40 0 -67.5 21t-43.5 46q-17 -34 -50 -50.5t-71 -16.5h-415v116h206v413h114v-413h90q23 0 30 14t7 38v548h115v-508q0 -40 18.5 -66t68.5 -26h35q16 0 22 -8t6 -19v-61q0 -8 -6.5 -18t-21.5 -10h-37zM70 673q26 30 50.5 40.5t48.5 10.5q15 0 38 -8.5t48 -19.5
q26 -11 50.5 -20.5t44.5 -9.5q22 0 35 15t20 33l48 -22q-19 -46 -42 -64.5t-65 -18.5q-23 0 -45.5 8.5t-45.5 19.5t-45 19.5t-46 8.5q-14 0 -29 -7.5t-29 -19.5z" />
    <glyph glyph-name="uniFEF7" unicode="&#xfedf;&#xfe84;" horiz-adv-x="680" arabic-form="isolated" 
d="M590 716v-716h-561v116h205v413h114v-413h128v600h114zM357 786q-18 5 -36 5q-15 0 -25 -8.5t-10 -25.5q0 -15 13.5 -28t42.5 -13h31v-53h-169v53h45q-8 11 -15 24t-7 30q0 29 22 51t67 22q12 0 25.5 -2t24.5 -5z" />
    <glyph glyph-name="uniFEF8" unicode="&#xfee0;&#xfe84;" horiz-adv-x="712" arabic-form="final" 
d="M677 0q-40 0 -67.5 21t-43.5 46q-17 -34 -50 -50.5t-71 -16.5h-415v116h206v413h114v-413h90q23 0 30 14t7 38v548h115v-508q0 -40 18.5 -66t68.5 -26h35q16 0 22 -8t6 -19v-61q0 -8 -6.5 -18t-21.5 -10h-37zM353 786q-18 5 -36 5q-15 0 -25 -8.5t-10 -25.5
q0 -15 13.5 -28t42.5 -13h31v-53h-169v53h45q-8 11 -15 24t-7 30q0 29 22 51t67 22q12 0 25.5 -2t24.5 -5z" />
    <glyph glyph-name="uniFEF9" unicode="&#xfedf;&#xfe88;" horiz-adv-x="680" arabic-form="isolated" 
d="M590 716v-716h-561v116h205v413h114v-413h128v600h114zM353 -141q-18 5 -36 5q-15 0 -25 -8.5t-10 -25.5q0 -15 13.5 -28t42.5 -13h31v-53h-169v53h45q-8 11 -15 24t-7 30q0 29 22 51t67 22q12 0 25.5 -2t24.5 -5z" />
    <glyph glyph-name="uniFEFA" unicode="&#xfee0;&#xfe88;" horiz-adv-x="712" arabic-form="final" 
d="M677 0q-40 0 -67.5 21t-43.5 46q-17 -34 -50 -50.5t-71 -16.5h-415v116h206v413h114v-413h90q23 0 30 14t7 38v548h115v-508q0 -40 18.5 -66t68.5 -26h35q16 0 22 -8t6 -19v-61q0 -8 -6.5 -18t-21.5 -10h-37zM360 -141q-18 5 -36 5q-15 0 -25 -8.5t-10 -25.5
q0 -15 13.5 -28t42.5 -13h31v-53h-169v53h45q-8 11 -15 24t-7 30q0 29 22 51t67 22q12 0 25.5 -2t24.5 -5z" />
    <glyph glyph-name="uniFEFB" unicode="&#xfedf;&#xfe8e;" horiz-adv-x="680" arabic-form="isolated" 
d="M590 716v-716h-561v116h205v413h114v-413h128v600h114z" />
    <glyph glyph-name="uniFEFC" unicode="&#xfee0;&#xfe8e;" horiz-adv-x="712" arabic-form="final" 
d="M677 0q-40 0 -67.5 21t-43.5 46q-17 -34 -50 -50.5t-71 -16.5h-415v116h206v413h114v-413h90q23 0 30 14t7 38v548h115v-508q0 -40 18.5 -66t68.5 -26h35q16 0 22 -8t6 -19v-61q0 -8 -6.5 -18t-21.5 -10h-37z" />
    <glyph glyph-name="uni06440671" unicode="&#xfedf;&#xfb51;" horiz-adv-x="680" 
d="M173 667h52v59h43q12 14 28 22.5t33 8.5q33 0 53.5 -21.5t20.5 -53.5v-60h-230v45zM358 674q0 19 -9 28.5t-23 9.5q-16 0 -30 -12.5t-21 -32.5h83v7zM590 716v-716h-561v116h205v413h114v-413h128v600h114z" />
    <glyph glyph-name="uni06440671.fina" unicode="&#xfee0;&#xfb51;" horiz-adv-x="712" 
d="M173 666h52v59h43q12 14 28 22.5t33 8.5q33 0 53.5 -21.5t20.5 -53.5v-60h-230v45zM358 673q0 19 -9 28.5t-23 9.5q-16 0 -30 -12.5t-21 -32.5h83v7zM677 0q-40 0 -67.5 21t-43.5 46q-17 -34 -50 -50.5t-71 -16.5h-415v116h206v413h114v-413h90q23 0 30 14t7 38v548h115
v-508q0 -40 18.5 -66t68.5 -26h35q16 0 22 -8t6 -19v-61q0 -8 -6.5 -18t-21.5 -10h-37z" />
    <glyph glyph-name="uni0621" unicode="&#x621;" horiz-adv-x="390" arabic-form="isolated" 
d="M334 107v-107h-314v107h74q-14 17 -23 41t-9 54q0 27 10 51.5t31 43.5t53 30t76 11q20 0 45 -3.5t45 -9.5l-18 -102q-14 2 -31 4t-34 2q-29 0 -49 -10t-20 -36q0 -27 26.5 -51.5t81.5 -24.5h56z" />
    <glyph glyph-name="uni0622" unicode="&#x622;" horiz-adv-x="261" arabic-form="isolated" 
d="M74 716h113v-716h-113v716zM-69 849q26 30 50.5 40.5t48.5 10.5q15 0 38 -8.5t48 -19.5q26 -11 50.5 -20.5t44.5 -9.5q22 0 35 15t20 33l48 -22q-19 -46 -42 -64.5t-65 -18.5q-23 0 -45.5 8.5t-45.5 19.5t-45 19.5t-46 8.5q-14 0 -29 -7.5t-29 -19.5z" />
    <glyph glyph-name="uni0623" unicode="&#x623;" horiz-adv-x="261" arabic-form="isolated" 
d="M74 716h113v-716h-113v716zM194 923q-18 5 -36 5q-15 0 -25 -8.5t-10 -25.5q0 -15 13.5 -28t42.5 -13h31v-53h-169v53h45q-8 11 -15 24t-7 30q0 29 22 51t67 22q12 0 25.5 -2t24.5 -5z" />
    <glyph glyph-name="uni0624" unicode="&#x624;" horiz-adv-x="528" arabic-form="isolated" 
d="M281 0q-62 0 -104.5 17.5t-69 46t-38.5 64.5t-12 73q0 47 15.5 89.5t43.5 74.5t67 50.5t86 18.5q44 0 79.5 -14.5t60.5 -41t38.5 -63t13.5 -80.5v-220q0 -63 -19 -107.5t-53.5 -72t-82 -40.5t-104.5 -13q-21 0 -46.5 1.5t-56.5 6.5l8 112q29 -4 55.5 -6t44.5 -2
q28 0 53 4t44 15.5t31 32t14 54.5h-68zM348 116v89q0 57 -22.5 87.5t-62.5 30.5q-18 0 -34.5 -7.5t-30 -21t-21.5 -32.5t-8 -43q0 -28 9 -47.5t24 -32t35 -18t41 -5.5h70zM353 656q-11 3 -23.5 5.5t-26.5 2.5q-20 0 -34 -12t-14 -36q0 -20 19 -38t58 -18h43v-74h-234v74h62
q-11 14 -20.5 33t-9.5 42q0 40 30.5 70.5t93.5 30.5q16 0 34.5 -2.5t33.5 -7.5z" />
    <glyph glyph-name="uni0625" unicode="&#x625;" horiz-adv-x="261" arabic-form="isolated" 
d="M74 716h113v-716h-113v716zM191 -141q-18 5 -36 5q-15 0 -25 -8.5t-10 -25.5q0 -15 13.5 -28t42.5 -13h31v-53h-169v53h45q-8 11 -15 24t-7 30q0 29 22 51t67 22q12 0 25.5 -2t24.5 -5z" />
    <glyph glyph-name="uni0626" unicode="&#x626;" horiz-adv-x="748" arabic-form="isolated" 
d="M531 11q0 20 -18 40t-41 40q-17 15 -34.5 32t-31.5 36.5t-23 42t-9 49.5q0 47 18.5 81t48 56t65 32.5t69.5 10.5q23 0 45 -3.5t40 -8.5q20 -4 40 -12l-27 -114q-22 11 -51 17.5t-58 6.5q-32 0 -53.5 -14t-21.5 -39q0 -21 20 -43.5t46 -45.5q17 -15 34 -31.5t30.5 -34.5
t21.5 -38t8 -43q0 -39 -20 -81.5t-62 -78.5t-107 -59t-154 -23q-81 0 -139 24t-95 61.5t-54.5 84.5t-17.5 94q0 54 19 100t48 88l94 -55q-23 -34 -33.5 -66.5t-10.5 -59.5q0 -33 13 -60.5t38.5 -47.5t62.5 -31.5t86 -11.5q47 0 86.5 10t68 25t44 33.5t15.5 36.5zM200 472
q-11 3 -23.5 5.5t-26.5 2.5q-20 0 -34 -12t-14 -36q0 -20 19 -38t58 -18h43v-74h-234v74h62q-11 14 -20.5 33t-9.5 42q0 40 30.5 70.5t93.5 30.5q16 0 34.5 -2.5t33.5 -7.5z" />
    <glyph glyph-name="uni0627" unicode="&#x627;" horiz-adv-x="261" arabic-form="isolated" 
d="M74 716h113v-716h-113v716z" />
    <glyph glyph-name="uni0628" unicode="&#x628;" horiz-adv-x="822" arabic-form="isolated" 
d="M155 0q-44 0 -74 12t-48 32t-25.5 47t-7.5 56v169h114v-149q0 -32 11 -41.5t37 -9.5h465v282h115v-398h-587zM321 -126q0 24 17.5 40.5t43.5 16.5q25 0 42.5 -16.5t17.5 -40.5q0 -25 -17.5 -41.5t-42.5 -16.5q-26 0 -43.5 16.5t-17.5 41.5z" />
    <glyph glyph-name="uni0629" unicode="&#x629;" horiz-adv-x="472" arabic-form="isolated" 
d="M402 0h-181q-61 0 -103.5 17.5t-69.5 46t-39 64.5t-12 73q0 47 15.5 89.5t44 74.5t67.5 50.5t86 18.5q43 0 78.5 -14.5t61 -41t39 -63t13.5 -80.5v-235zM288 116v89q0 57 -22 87.5t-64 30.5q-17 0 -33.5 -7.5t-29.5 -21t-21 -32.5t-8 -43q0 -28 9 -47.5t24 -32t34.5 -18
t40.5 -5.5h70zM67 554q0 24 17 41t43 17t43 -17t17 -41t-17 -41t-43 -17t-43 17t-17 41zM223 554q0 24 17 41t43 17t43 -17t17 -41t-17 -41t-43 -17t-43 17t-17 41z" />
    <glyph glyph-name="uni062A" unicode="&#x62a;" horiz-adv-x="822" arabic-form="isolated" 
d="M155 0q-44 0 -74 12t-48 32t-25.5 47t-7.5 56v169h114v-149q0 -32 11 -41.5t37 -9.5h465v282h115v-398h-587zM258 554q0 24 17 41t43 17t43 -17t17 -41t-17 -41t-43 -17t-43 17t-17 41zM414 554q0 24 17 41t43 17t43 -17t17 -41t-17 -41t-43 -17t-43 17t-17 41z" />
    <glyph glyph-name="uni062B" unicode="&#x62b;" horiz-adv-x="822" arabic-form="isolated" 
d="M155 0q-44 0 -74 12t-48 32t-25.5 47t-7.5 56v169h114v-149q0 -32 11 -41.5t37 -9.5h465v282h115v-398h-587zM331 683q0 24 17.5 40.5t43.5 16.5q25 0 43 -16.5t18 -40.5q0 -25 -18 -41.5t-43 -16.5q-26 0 -43.5 16.5t-17.5 41.5zM254 554q0 24 17 41t43 17t43 -17
t17 -41t-17 -41t-43 -17t-43 17t-17 41zM410 554q0 24 17 41t43 17t43 -17t17 -41t-17 -41t-43 -17t-43 17t-17 41z" />
    <glyph glyph-name="uni062C" unicode="&#x62c;" horiz-adv-x="555" arabic-form="isolated" 
d="M247 0q-32 0 -55.5 -9t-39 -24.5t-23.5 -35t-8 -40.5q0 -51 34.5 -82t103.5 -31q12 0 27.5 2t30.5 5t28.5 6.5t21.5 6.5l15 -104q-8 -4 -23.5 -8.5t-35.5 -8.5t-42.5 -6.5t-43.5 -2.5q-43 0 -85.5 12.5t-76 39t-54.5 67.5t-21 99q0 54 18.5 96.5t53 72.5t82.5 45.5
t108 15.5h97q-14 21 -22.5 51t-12.5 61q-11 92 -84 92q-21 0 -52.5 -6t-60.5 -20l-29 108q12 5 31 11t41 11t45.5 8.5t46.5 3.5q43 0 74.5 -13.5t52.5 -38t33 -58.5t17 -74q2 -20 5.5 -40t11 -38.5t19.5 -34.5t32 -28v-111h-260zM213 -111q0 24 17.5 40.5t43.5 16.5
q25 0 42.5 -16.5t17.5 -40.5q0 -25 -17.5 -41.5t-42.5 -16.5q-26 0 -43.5 16.5t-17.5 41.5z" />
    <glyph glyph-name="uni062D" unicode="&#x62d;" horiz-adv-x="555" arabic-form="isolated" 
d="M247 0q-32 0 -55.5 -9t-39 -24.5t-23.5 -35t-8 -40.5q0 -51 34.5 -82t103.5 -31q12 0 27.5 2t30.5 5t28.5 6.5t21.5 6.5l15 -104q-8 -4 -23.5 -8.5t-35.5 -8.5t-42.5 -6.5t-43.5 -2.5q-43 0 -85.5 12.5t-76 39t-54.5 67.5t-21 99q0 54 18.5 96.5t53 72.5t82.5 45.5
t108 15.5h97q-14 21 -22.5 51t-12.5 61q-11 92 -84 92q-21 0 -52.5 -6t-60.5 -20l-29 108q12 5 31 11t41 11t45.5 8.5t46.5 3.5q43 0 74.5 -13.5t52.5 -38t33 -58.5t17 -74q2 -20 5.5 -40t11 -38.5t19.5 -34.5t32 -28v-111h-260z" />
    <glyph glyph-name="uni062E" unicode="&#x62e;" horiz-adv-x="555" arabic-form="isolated" 
d="M247 0q-32 0 -55.5 -9t-39 -24.5t-23.5 -35t-8 -40.5q0 -51 34.5 -82t103.5 -31q12 0 27.5 2t30.5 5t28.5 6.5t21.5 6.5l15 -104q-8 -4 -23.5 -8.5t-35.5 -8.5t-42.5 -6.5t-43.5 -2.5q-43 0 -85.5 12.5t-76 39t-54.5 67.5t-21 99q0 54 18.5 96.5t53 72.5t82.5 45.5
t108 15.5h97q-14 21 -22.5 51t-12.5 61q-11 92 -84 92q-21 0 -52.5 -6t-60.5 -20l-29 108q12 5 31 11t41 11t45.5 8.5t46.5 3.5q43 0 74.5 -13.5t52.5 -38t33 -58.5t17 -74q2 -20 5.5 -40t11 -38.5t19.5 -34.5t32 -28v-111h-260zM174 554q0 24 17.5 41t42.5 17
q26 0 43.5 -17t17.5 -41t-17.5 -41t-43.5 -17q-25 0 -42.5 17t-17.5 41z" />
    <glyph glyph-name="uni062F" unicode="&#x62f;" horiz-adv-x="492" arabic-form="isolated" 
d="M37 0v116h273v101q0 34 -8 55t-23.5 33t-38 16t-50.5 4h-97v111h120q41 0 79.5 -8t68 -31t47 -64t17.5 -107v-226h-388z" />
    <glyph glyph-name="uni0630" unicode="&#x630;" horiz-adv-x="492" arabic-form="isolated" 
d="M37 0v116h273v101q0 34 -8 55t-23.5 33t-38 16t-50.5 4h-97v111h120q41 0 79.5 -8t68 -31t47 -64t17.5 -107v-226h-388zM122 554q0 24 17.5 41t42.5 17q26 0 43.5 -17t17.5 -41t-17.5 -41t-43.5 -17q-25 0 -42.5 17t-17.5 41z" />
    <glyph glyph-name="uni0631" unicode="&#x631;" horiz-adv-x="339" arabic-form="isolated" 
d="M263 16q0 -45 -12 -84t-36 -68t-59 -45.5t-81 -16.5q-19 0 -35 1.5t-28 3.5q-7 1 -13.5 2t-13.5 3l13 114l28 -6q12 -2 25 -3.5t24 -1.5q44 0 59 28t15 82v373h114v-382z" />
    <glyph glyph-name="uni0632" unicode="&#x632;" horiz-adv-x="339" arabic-form="isolated" 
d="M263 16q0 -45 -12 -84t-36 -68t-59 -45.5t-81 -16.5q-19 0 -35 1.5t-28 3.5q-7 1 -13.5 2t-13.5 3l13 114l28 -6q12 -2 25 -3.5t24 -1.5q44 0 59 28t15 82v373h114v-382zM154 554q0 24 17.5 41t42.5 17q26 0 43.5 -17t17.5 -41t-17.5 -41t-43.5 -17q-25 0 -42.5 17
t-17.5 41z" />
    <glyph glyph-name="uni0633" unicode="&#x633;" horiz-adv-x="1178" arabic-form="isolated" 
d="M922 0q-42 0 -70.5 19.5t-42.5 47.5q-17 -32 -47.5 -49.5t-72.5 -17.5h-32q-30 0 -52.5 10t-36.5 25q-4 -54 -26 -99t-59 -78t-88 -51t-112 -18q-82 0 -136.5 23.5t-87 61t-46 84t-13.5 91.5q0 48 16 97.5t48 91.5l96 -55q-23 -34 -33 -67.5t-10 -66.5q0 -22 7.5 -47
t26.5 -46.5t52 -36t84 -14.5q32 0 62.5 9t54.5 28.5t38.5 50t14.5 72.5v240h114v-97q0 -20 4 -36.5t14 -29t27 -19.5t43 -7h24q24 0 31 15.5t7 36.5v176h114v-130q0 -21 3.5 -38.5t13.5 -31t27 -21t43 -7.5h58v282h114v-398h-172z" />
    <glyph glyph-name="uni0634" unicode="&#x634;" horiz-adv-x="1178" arabic-form="isolated" 
d="M922 0q-42 0 -70.5 19.5t-42.5 47.5q-17 -32 -47.5 -49.5t-72.5 -17.5h-32q-30 0 -52.5 10t-36.5 25q-4 -54 -26 -99t-59 -78t-88 -51t-112 -18q-82 0 -136.5 23.5t-87 61t-46 84t-13.5 91.5q0 48 16 97.5t48 91.5l96 -55q-23 -34 -33 -67.5t-10 -66.5q0 -22 7.5 -47
t26.5 -46.5t52 -36t84 -14.5q32 0 62.5 9t54.5 28.5t38.5 50t14.5 72.5v240h114v-97q0 -20 4 -36.5t14 -29t27 -19.5t43 -7h24q24 0 31 15.5t7 36.5v176h114v-130q0 -21 3.5 -38.5t13.5 -31t27 -21t43 -7.5h58v282h114v-398h-172zM712 683q0 24 17.5 40.5t43.5 16.5
q25 0 43 -16.5t18 -40.5q0 -25 -18 -41.5t-43 -16.5q-26 0 -43.5 16.5t-17.5 41.5zM635 554q0 24 17 41t43 17t43 -17t17 -41t-17 -41t-43 -17t-43 17t-17 41zM791 554q0 24 17 41t43 17t43 -17t17 -41t-17 -41t-43 -17t-43 17t-17 41z" />
    <glyph glyph-name="uni0635" unicode="&#x635;" horiz-adv-x="1104" arabic-form="isolated" 
d="M564 0q-10 -47 -34 -85.5t-60 -66.5t-83 -43t-103 -15q-82 0 -136.5 23.5t-87.5 61t-46.5 84t-13.5 91.5q0 48 16.5 97.5t47.5 91.5l96 -55q-23 -34 -33 -67.5t-10 -66.5q0 -22 7.5 -47t26.5 -46.5t52.5 -36t84.5 -14.5q32 0 62.5 9t54 28.5t38 50t14.5 72.5v333h114v-77
q43 57 104 90t124 33q58 0 102 -20t73.5 -54.5t44.5 -81.5t15 -101v-188h-470zM917 177q0 43 -9.5 72.5t-27 47t-41.5 25t-52 7.5q-35 0 -70 -15t-64.5 -43t-51 -67.5t-28.5 -87.5h344v61z" />
    <glyph glyph-name="uni0636" unicode="&#x636;" horiz-adv-x="1104" arabic-form="isolated" 
d="M564 0q-10 -47 -34 -85.5t-60 -66.5t-83 -43t-103 -15q-82 0 -136.5 23.5t-87.5 61t-46.5 84t-13.5 91.5q0 48 16.5 97.5t47.5 91.5l96 -55q-23 -34 -33 -67.5t-10 -66.5q0 -22 7.5 -47t26.5 -46.5t52.5 -36t84.5 -14.5q32 0 62.5 9t54 28.5t38 50t14.5 72.5v333h114v-77
q43 57 104 90t124 33q58 0 102 -20t73.5 -54.5t44.5 -81.5t15 -101v-188h-470zM917 177q0 43 -9.5 72.5t-27 47t-41.5 25t-52 7.5q-35 0 -70 -15t-64.5 -43t-51 -67.5t-28.5 -87.5h344v61zM736 554q0 24 17.5 41t42.5 17q26 0 43.5 -17t17.5 -41t-17.5 -41t-43.5 -17
q-25 0 -42.5 17t-17.5 41z" />
    <glyph glyph-name="uni0637" unicode="&#x637;" horiz-adv-x="745" arabic-form="isolated" 
d="M0 116h112v600h115v-402q42 57 100 87.5t121 30.5q56 0 98.5 -19t71 -52.5t43 -79.5t14.5 -100v-181h-675v116zM562 173q0 42 -9 70.5t-25.5 45.5t-40 24.5t-51.5 7.5q-33 0 -67 -14.5t-62.5 -41t-49.5 -64.5t-28 -85h333v57z" />
    <glyph glyph-name="uni0638" unicode="&#x638;" horiz-adv-x="745" arabic-form="isolated" 
d="M0 116h112v600h115v-402q42 57 100 87.5t121 30.5q56 0 98.5 -19t71 -52.5t43 -79.5t14.5 -100v-181h-675v116zM562 173q0 42 -9 70.5t-25.5 45.5t-40 24.5t-51.5 7.5q-33 0 -67 -14.5t-62.5 -41t-49.5 -64.5t-28 -85h333v57zM370 554q0 24 17.5 41t42.5 17
q26 0 43.5 -17t17.5 -41t-17.5 -41t-43.5 -17q-25 0 -42.5 17t-17.5 41z" />
    <glyph glyph-name="uni0639" unicode="&#x639;" horiz-adv-x="498" arabic-form="isolated" 
d="M0 -114q0 87 43.5 141.5t121.5 76.5q-33 21 -56 60.5t-23 90.5q0 36 12.5 70t38.5 61t67 43t98 16q23 0 50 -2.5t61 -7.5l-13 -114q-26 4 -46 6t-40 2q-54 0 -83 -25t-29 -67q0 -29 13.5 -51.5t35.5 -37.5t51 -23t60 -8h88v-117h-203q-32 0 -56 -9t-39.5 -24.5t-23.5 -35
t-8 -40.5q0 -51 34.5 -82t103.5 -31q13 0 28.5 2t30.5 5t28 6.5t21 6.5l16 -104q-8 -4 -23.5 -8.5t-35.5 -8.5t-42.5 -6.5t-43.5 -2.5q-43 0 -85.5 12.5t-76 39t-54.5 67.5t-21 99z" />
    <glyph glyph-name="uni063A" unicode="&#x63a;" horiz-adv-x="498" arabic-form="isolated" 
d="M0 -114q0 87 43.5 141.5t121.5 76.5q-33 21 -56 60.5t-23 90.5q0 36 12.5 70t38.5 61t67 43t98 16q23 0 50 -2.5t61 -7.5l-13 -114q-26 4 -46 6t-40 2q-54 0 -83 -25t-29 -67q0 -29 13.5 -51.5t35.5 -37.5t51 -23t60 -8h88v-117h-203q-32 0 -56 -9t-39.5 -24.5t-23.5 -35
t-8 -40.5q0 -51 34.5 -82t103.5 -31q13 0 28.5 2t30.5 5t28 6.5t21 6.5l16 -104q-8 -4 -23.5 -8.5t-35.5 -8.5t-42.5 -6.5t-43.5 -2.5q-43 0 -85.5 12.5t-76 39t-54.5 67.5t-21 99zM233 554q0 24 17.5 41t42.5 17q26 0 43.5 -17t17.5 -41t-17.5 -41t-43.5 -17
q-25 0 -42.5 17t-17.5 41z" />
    <glyph glyph-name="uni0641" unicode="&#x641;" horiz-adv-x="932" arabic-form="isolated" 
d="M480 116q-8 11 -17 36.5t-9 65.5q0 41 16 80t45 69t70 48.5t91 18.5q87 0 135.5 -53.5t48.5 -141.5v-239h-716q-29 0 -55.5 8.5t-46 27t-31 47t-11.5 69.5v173h115v-153q0 -35 11 -45.5t25 -10.5h329zM746 116v128q0 14 -4.5 28t-14.5 25.5t-25.5 18.5t-37.5 7
q-19 0 -36.5 -7.5t-31 -21t-21.5 -32.5t-8 -43q0 -36 14 -56.5t31 -31.5q19 -12 46 -15h88zM581 554q0 24 17.5 41t42.5 17q26 0 43.5 -17t17.5 -41t-17.5 -41t-43.5 -17q-25 0 -42.5 17t-17.5 41z" />
    <glyph glyph-name="uni0642" unicode="&#x642;" horiz-adv-x="713" arabic-form="isolated" 
d="M487 0q-71 0 -119 18t-77.5 48.5t-42 70t-12.5 81.5q0 44 17 83.5t47 69t70.5 46.5t87.5 17q43 0 77.5 -14.5t58.5 -40.5t37 -61.5t13 -78.5v-224q0 -57 -19 -111.5t-59 -97t-101 -68.5t-145 -26q-86 0 -147 23t-99.5 59.5t-56 81.5t-17.5 89q0 45 10 83.5t21.5 67
t21.5 44.5t10 15l93 -50q-11 -18 -21 -41q-8 -19 -14.5 -42t-6.5 -49q0 -34 12 -64t38 -52.5t66.5 -35.5t97.5 -13q55 0 93 15t62 39t35.5 55t13.5 63h-45zM529 116v128q0 32 -22 55.5t-61 23.5q-18 0 -35 -7t-31 -20.5t-22.5 -32.5t-8.5 -44q0 -27 10.5 -46.5t28 -32
t40.5 -18.5t49 -6h52zM320 554q0 24 17 41t43 17t43 -17t17 -41t-17 -41t-43 -17t-43 17t-17 41zM476 554q0 24 17 41t43 17t43 -17t17 -41t-17 -41t-43 -17t-43 17t-17 41z" />
    <glyph glyph-name="uni0643" unicode="&#x643;" horiz-adv-x="823" arabic-form="isolated" 
d="M142 0q-39 0 -66 12t-44 32t-24.5 47t-7.5 56v169h114v-149q0 -17 4.5 -27.5t11 -15.5t14 -6.5t14.5 -1.5h471v600h114v-716h-601zM470 478q-9 2 -19.5 4t-21.5 2q-16 0 -27 -9t-11 -29q0 -16 15 -30t47 -14h34v-59h-187v59h49q-8 11 -16 26t-8 33q0 32 24.5 56.5
t75.5 24.5q27 0 54 -8z" />
    <glyph glyph-name="uni0644" unicode="&#x644;" horiz-adv-x="660" arabic-form="isolated" 
d="M570 69q0 -63 -21 -114.5t-58.5 -88.5t-91 -57t-117.5 -20q-82 0 -136 23.5t-86.5 61t-46 84t-13.5 91.5q0 48 16 97.5t47 91.5l97 -55q-24 -34 -34 -67.5t-10 -66.5q0 -22 7.5 -47t27 -46.5t52.5 -36t84 -14.5q32 0 62.5 9t54.5 28.5t38.5 50t14.5 72.5v651h113v-647z
" />
    <glyph glyph-name="uni0645" unicode="&#x645;" horiz-adv-x="688" arabic-form="isolated" 
d="M0 -334v274q0 88 47.5 133t122.5 45h35v98q0 43 14.5 84.5t42 73.5t67 51.5t89.5 19.5q48 0 87 -16.5t66.5 -45.5t42.5 -70t15 -89q0 -60 -17 -102.5t-48 -69.5t-73.5 -39.5t-93.5 -12.5h-219q-32 0 -48 -18.5t-16 -69.5v-246h-114zM421 332q-21 0 -39 -6.5t-31.5 -21.5
t-21.5 -39t-8 -59v-88h94q57 0 77.5 26t20.5 77q0 52 -23.5 81.5t-68.5 29.5z" />
    <glyph glyph-name="uni0646" unicode="&#x646;" horiz-adv-x="629" arabic-form="isolated" 
d="M503 309q13 -23 25 -53.5t21.5 -62.5t15 -64t5.5 -59q0 -57 -18.5 -108t-55 -89.5t-90.5 -61t-125 -22.5q-78 0 -132 22t-87 58.5t-48 83t-15 96.5q0 48 16 97.5t45 91.5l97 -55q-23 -37 -32.5 -68.5t-9.5 -65.5q0 -27 10 -53t31 -46.5t53.5 -32.5t76.5 -12q41 0 72.5 12
t53.5 32.5t33 48.5t11 61q0 45 -17 97t-43 92zM221 442q0 24 17.5 41t42.5 17q26 0 43.5 -17t17.5 -41t-17.5 -41t-43.5 -17q-25 0 -42.5 17t-17.5 41z" />
    <glyph glyph-name="uni0648" unicode="&#x648;" horiz-adv-x="528" arabic-form="isolated" 
d="M281 0q-62 0 -104.5 17.5t-69 46t-38.5 64.5t-12 73q0 47 15.5 89.5t43.5 74.5t67 50.5t86 18.5q44 0 79.5 -14.5t60.5 -41t38.5 -63t13.5 -80.5v-220q0 -63 -19 -107.5t-53.5 -72t-82 -40.5t-104.5 -13q-21 0 -46.5 1.5t-56.5 6.5l8 112q29 -4 55.5 -6t44.5 -2
q28 0 53 4t44 15.5t31 32t14 54.5h-68zM348 116v89q0 57 -22.5 87.5t-62.5 30.5q-18 0 -34.5 -7.5t-30 -21t-21.5 -32.5t-8 -43q0 -28 9 -47.5t24 -32t35 -18t41 -5.5h70z" />
    <glyph glyph-name="uni0649" unicode="&#x649;" horiz-adv-x="748" arabic-form="isolated" 
d="M531 11q0 20 -18 40t-41 40q-17 15 -34.5 32t-31.5 36.5t-23 42t-9 49.5q0 47 18.5 81t48 56t65 32.5t69.5 10.5q23 0 45 -3.5t40 -8.5q20 -4 40 -12l-27 -114q-22 11 -51 17.5t-58 6.5q-32 0 -53.5 -14t-21.5 -39q0 -21 20 -43.5t46 -45.5q17 -15 34 -31.5t30.5 -34.5
t21.5 -38t8 -43q0 -39 -20 -81.5t-62 -78.5t-107 -59t-154 -23q-81 0 -139 24t-95 61.5t-54.5 84.5t-17.5 94q0 54 19 100t48 88l94 -55q-23 -34 -33.5 -66.5t-10.5 -59.5q0 -33 13 -60.5t38.5 -47.5t62.5 -31.5t86 -11.5q47 0 86.5 10t68 25t44 33.5t15.5 36.5z" />
    <glyph glyph-name="uni064A" unicode="&#x64a;" horiz-adv-x="748" arabic-form="isolated" 
d="M531 11q0 20 -18 40t-41 40q-17 15 -34.5 32t-31.5 36.5t-23 42t-9 49.5q0 47 18.5 81t48 56t65 32.5t69.5 10.5q23 0 45 -3.5t40 -8.5q20 -4 40 -12l-27 -114q-22 11 -51 17.5t-58 6.5q-32 0 -53.5 -14t-21.5 -39q0 -21 20 -43.5t46 -45.5q17 -15 34 -31.5t30.5 -34.5
t21.5 -38t8 -43q0 -39 -20 -81.5t-62 -78.5t-107 -59t-154 -23q-81 0 -139 24t-95 61.5t-54.5 84.5t-17.5 94q0 54 19 100t48 88l94 -55q-23 -34 -33.5 -66.5t-10.5 -59.5q0 -33 13 -60.5t38.5 -47.5t62.5 -31.5t86 -11.5q47 0 86.5 10t68 25t44 33.5t15.5 36.5zM192 -330
q0 24 17 40.5t43 16.5t43 -16.5t17 -40.5q0 -25 -17 -41.5t-43 -16.5t-43 16.5t-17 41.5zM347 -330q0 24 17 40.5t43 16.5t43 -16.5t17 -40.5q0 -25 -17 -41.5t-43 -16.5t-43 16.5t-17 41.5z" />
    <glyph glyph-name="uni0671" unicode="&#x671;" horiz-adv-x="261" arabic-form="isolated" 
d="M14 831h52v59h43q12 14 28 22.5t33 8.5q33 0 53.5 -21.5t20.5 -53.5v-60h-230v45zM199 838q0 19 -9 28.5t-23 9.5q-16 0 -30 -12.5t-21 -32.5h83v7zM74 716h113v-716h-113v716z" />
    <glyph glyph-name="uni0679" unicode="&#x679;" horiz-adv-x="822" arabic-form="isolated" 
d="M155 0q-44 0 -74 12t-48 32t-25.5 47t-7.5 56v169h114v-149q0 -32 11 -41.5t37 -9.5h465v282h115v-398h-587zM253 552h38v211h49v-129q15 23 36.5 33t46.5 10q43 0 67.5 -26t24.5 -68v-79h-262v48zM467 575q0 32 -13.5 43.5t-35.5 11.5q-26 0 -49.5 -20.5t-28.5 -57.5
h127v23z" />
    <glyph glyph-name="uni067E" unicode="&#x67e;" horiz-adv-x="822" arabic-form="isolated" 
d="M155 0q-44 0 -74 12t-48 32t-25.5 47t-7.5 56v169h114v-149q0 -32 11 -41.5t37 -9.5h465v282h115v-398h-587zM451 -256q0 -24 -17.5 -40.5t-43.5 -16.5q-25 0 -43 16.5t-18 40.5q0 25 18 41.5t43 16.5q26 0 43.5 -16.5t17.5 -41.5zM528 -127q0 -24 -17 -41t-43 -17
t-43 17t-17 41t17 41t43 17t43 -17t17 -41zM372 -127q0 -24 -17 -41t-43 -17t-43 17t-17 41t17 41t43 17t43 -17t17 -41z" />
    <glyph glyph-name="uni0686" unicode="&#x686;" horiz-adv-x="555" arabic-form="isolated" 
d="M247 0q-32 0 -55.5 -9t-39 -24.5t-23.5 -35t-8 -40.5q0 -51 34.5 -82t103.5 -31q12 0 27.5 2t30.5 5t28.5 6.5t21.5 6.5l15 -104q-8 -4 -23.5 -8.5t-35.5 -8.5t-42.5 -6.5t-43.5 -2.5q-43 0 -85.5 12.5t-76 39t-54.5 67.5t-21 99q0 54 18.5 96.5t53 72.5t82.5 45.5
t108 15.5h97q-14 21 -22.5 51t-12.5 61q-11 92 -84 92q-21 0 -52.5 -6t-60.5 -20l-29 108q12 5 31 11t41 11t45.5 8.5t46.5 3.5q43 0 74.5 -13.5t52.5 -38t33 -58.5t17 -74q2 -20 5.5 -40t11 -38.5t19.5 -34.5t32 -28v-111h-260zM344.649 -157.281
q0 -16.7139 -12.2646 -28.2051q-12.2637 -11.4902 -30.4844 -11.4902q-17.5205 0 -30.1348 11.4902q-12.6152 11.4912 -12.6152 28.2051q0 17.4102 12.6152 28.9014q12.6143 11.4902 30.1348 11.4902q18.2207 0 30.4844 -11.4902q12.2646 -11.4912 12.2646 -28.9014z
M398.611 -67.4443q0 -16.7139 -11.9141 -28.5527t-30.1348 -11.8389t-30.1348 11.8389q-11.9131 11.8389 -11.9131 28.5527t11.9131 28.5527q11.9141 11.8389 30.1348 11.8389t30.1348 -11.8389t11.9141 -28.5527zM289.285 -67.4443q0 -16.7139 -11.9131 -28.5527
q-11.9141 -11.8389 -30.1348 -11.8389q-18.2217 0 -30.1348 11.8389q-11.9141 11.8389 -11.9141 28.5527t11.9141 28.5527q11.9131 11.8389 30.1348 11.8389q18.2207 0 30.1348 -11.8389q11.9131 -11.8389 11.9131 -28.5527z" />
    <glyph glyph-name="uni0688" unicode="&#x688;" horiz-adv-x="492" arabic-form="isolated" 
d="M37 0v116h273v101q0 34 -8 55t-23.5 33t-38 16t-50.5 4h-97v111h120q41 0 79.5 -8t68 -31t47 -64t17.5 -107v-226h-388zM79 552h38v211h49v-129q15 23 36.5 33t46.5 10q43 0 67.5 -26t24.5 -68v-79h-262v48zM293 575q0 32 -13.5 43.5t-35.5 11.5q-26 0 -49.5 -20.5
t-28.5 -57.5h127v23z" />
    <glyph glyph-name="uni0691" unicode="&#x691;" horiz-adv-x="339" arabic-form="isolated" 
d="M263 16q0 -45 -12 -84t-36 -68t-59 -45.5t-81 -16.5q-19 0 -35 1.5t-28 3.5q-7 1 -13.5 2t-13.5 3l13 114l28 -6q12 -2 25 -3.5t24 -1.5q44 0 59 28t15 82v373h114v-382zM71 552h38v211h49v-129q15 23 36.5 33t46.5 10q43 0 67.5 -26t24.5 -68v-79h-262v48zM285 575
q0 32 -13.5 43.5t-35.5 11.5q-26 0 -49.5 -20.5t-28.5 -57.5h127v23z" />
    <glyph glyph-name="uni0698" unicode="&#x698;" horiz-adv-x="339" arabic-form="isolated" 
d="M263 16q0 -45 -12 -84t-36 -68t-59 -45.5t-81 -16.5q-19 0 -35 1.5t-28 3.5q-7 1 -13.5 2t-13.5 3l13 114l28 -6q12 -2 25 -3.5t24 -1.5q44 0 59 28t15 82v373h114v-382zM150 683q0 24 17.5 40.5t43.5 16.5q25 0 43 -16.5t18 -40.5q0 -25 -18 -41.5t-43 -16.5
q-26 0 -43.5 16.5t-17.5 41.5zM73 554q0 24 17 41t43 17t43 -17t17 -41t-17 -41t-43 -17t-43 17t-17 41zM229 554q0 24 17 41t43 17t43 -17t17 -41t-17 -41t-43 -17t-43 17t-17 41z" />
    <glyph glyph-name="uni06A4" unicode="&#x6a4;" horiz-adv-x="932" arabic-form="isolated" 
d="M480 116q-8 11 -17 36.5t-9 65.5q0 41 16 80t45 69t70 48.5t91 18.5q87 0 135.5 -53.5t48.5 -141.5v-239h-716q-29 0 -55.5 8.5t-46 27t-31 47t-11.5 69.5v173h115v-153q0 -35 11 -45.5t25 -10.5h329zM746 116v128q0 14 -4.5 28t-14.5 25.5t-25.5 18.5t-37.5 7
q-19 0 -36.5 -7.5t-31 -21t-21.5 -32.5t-8 -43q0 -36 14 -56.5t31 -31.5q19 -12 46 -15h88zM616 683q0 24 17.5 40.5t43.5 16.5q25 0 43 -16.5t18 -40.5q0 -25 -18 -41.5t-43 -16.5q-26 0 -43.5 16.5t-17.5 41.5zM539 554q0 24 17 41t43 17t43 -17t17 -41t-17 -41t-43 -17
t-43 17t-17 41zM695 554q0 24 17 41t43 17t43 -17t17 -41t-17 -41t-43 -17t-43 17t-17 41z" />
    <glyph glyph-name="uni06A9" unicode="&#x6a9;" horiz-adv-x="813" arabic-form="isolated" 
d="M630 116v95q0 36 -9.5 56.5t-25.5 31t-37.5 13t-45.5 2.5h-122v101l194 308l94 -63l-152 -235h10q40 0 77.5 -9t66.5 -32t46 -63t17 -101v-220h-601q-39 0 -66 12t-44 32t-24.5 47t-7.5 56v169h114v-149q0 -17 3 -27.5t7.5 -15.5t11 -6.5t12.5 -1.5h482z" />
    <glyph glyph-name="uni06AF" unicode="&#x6af;" horiz-adv-x="813" arabic-form="isolated" 
d="M262 489l203 311l83 -56l-201 -309zM630 116v95q0 36 -9.5 56.5t-25.5 31t-37.5 13t-45.5 2.5h-122v101l194 308l94 -63l-152 -235h10q40 0 77.5 -9t66.5 -32t46 -63t17 -101v-220h-601q-39 0 -66 12t-44 32t-24.5 47t-7.5 56v169h114v-149q0 -17 3 -27.5t7.5 -15.5
t11 -6.5t12.5 -1.5h482z" />
    <glyph glyph-name="uni06BA" unicode="&#x6ba;" horiz-adv-x="629" arabic-form="isolated" 
d="M503 309q13 -23 25 -53.5t21.5 -62.5t15 -64t5.5 -59q0 -57 -18.5 -108t-55 -89.5t-90.5 -61t-125 -22.5q-78 0 -132 22t-87 58.5t-48 83t-15 96.5q0 48 16 97.5t45 91.5l97 -55q-23 -37 -32.5 -68.5t-9.5 -65.5q0 -27 10 -53t31 -46.5t53.5 -32.5t76.5 -12q41 0 72.5 12
t53.5 32.5t33 48.5t11 61q0 45 -17 97t-43 92z" />
    <glyph glyph-name="uni06BE" unicode="&#x6be;" horiz-adv-x="756" arabic-form="isolated" 
d="M455 116h117v28q0 80 -33 122t-84 53v-203zM353 319q-60 -8 -90 -59t-30 -132v-12h120v203zM146 0q-33 0 -43 -21.5t-10 -57.5h-67q-11 17 -18.5 40t-7.5 45q0 33 10 54.5t26 33.5t37 17t43 5h9q2 126 59.5 207t168.5 104v60h102v-60q60 -8 103.5 -32t72 -62t42 -88
t13.5 -110v-135h-540z" />
    <glyph glyph-name="uni06C0" unicode="&#x6c0;" horiz-adv-x="472" arabic-form="isolated" 
d="M402 0h-181q-61 0 -103.5 17.5t-69.5 46t-39 64.5t-12 73q0 47 15.5 89.5t44 74.5t67.5 50.5t86 18.5q43 0 78.5 -14.5t61 -41t39 -63t13.5 -80.5v-235zM288 116v89q0 57 -22 87.5t-64 30.5q-17 0 -33.5 -7.5t-29.5 -21t-21 -32.5t-8 -43q0 -28 9 -47.5t24 -32t34.5 -18
t40.5 -5.5h70zM284 656q-11 3 -23.5 5.5t-26.5 2.5q-20 0 -34 -12t-14 -36q0 -20 19 -38t58 -18h43v-74h-234v74h62q-11 14 -20.5 33t-9.5 42q0 40 30.5 70.5t93.5 30.5q16 0 34.5 -2.5t33.5 -7.5z" />
    <glyph glyph-name="uni06C1" unicode="&#x6c1;" horiz-adv-x="472" arabic-form="isolated" 
d="M402 0h-181q-61 0 -103.5 17.5t-69.5 46t-39 64.5t-12 73q0 47 15.5 89.5t44 74.5t67.5 50.5t86 18.5q43 0 78.5 -14.5t61 -41t39 -63t13.5 -80.5v-235zM288 116v89q0 57 -22 87.5t-64 30.5q-17 0 -33.5 -7.5t-29.5 -21t-21 -32.5t-8 -43q0 -28 9 -47.5t24 -32t34.5 -18
t40.5 -5.5h70z" />
    <glyph glyph-name="uni06C2.fina" unicode="&#x6c2;" horiz-adv-x="326" 
d="M302 0q-23 0 -42 8t-35 20.5t-28.5 27.5t-22.5 28q-12 15 -22 27t-20 12q-24 0 -36 -32t-12 -77v-15t2 -23h-84q-3 13 -4 25.5t-1 23.5q0 48 9.5 87t26 66t40 42t50.5 15q33 0 58.5 -20.5t40.5 -41.5q16 -22 36 -39.5t52 -17.5h20q16 0 21 -7t5 -16v-68q0 -11 -5.5 -18
t-20.5 -7h-28zM238 458q-11 3 -23.5 5.5t-26.5 2.5q-20 0 -34 -12t-14 -36q0 -20 19 -38t58 -18h43v-74h-234v74h62q-11 14 -20.5 33t-9.5 42q0 40 30.5 70.5t93.5 30.5q16 0 34.5 -2.5t33.5 -7.5z" />
    <glyph glyph-name="uni06C3.fina" unicode="&#x6c3;" horiz-adv-x="473" 
d="M291 116v89q0 57 -21.5 87.5t-63.5 30.5q-18 0 -34.5 -7.5t-29.5 -21t-21 -32.5t-8 -43q0 -28 9 -47.5t24 -32t34.5 -18t40.5 -5.5h70zM224 0q-61 0 -103.5 17.5t-69.5 46t-39 64.5t-12 73q0 47 16 89.5t44 74.5t67 50.5t86 18.5q43 0 78.5 -14.5t61 -41t39 -63
t13.5 -80.5v-119h71q14 0 20.5 -8t6.5 -19v-61q0 -8 -6.5 -18t-20.5 -10h-252zM72 554q0 24 17 41t43 17t43 -17t17 -41t-17 -41t-43 -17t-43 17t-17 41zM228 554q0 24 17 41t43 17t43 -17t17 -41t-17 -41t-43 -17t-43 17t-17 41z" />
    <glyph glyph-name="uni06CC" unicode="&#x6cc;" horiz-adv-x="748" arabic-form="isolated" 
d="M531 11q0 20 -18 40t-41 40q-17 15 -34.5 32t-31.5 36.5t-23 42t-9 49.5q0 47 18.5 81t48 56t65 32.5t69.5 10.5q23 0 45 -3.5t40 -8.5q20 -4 40 -12l-27 -114q-22 11 -51 17.5t-58 6.5q-32 0 -53.5 -14t-21.5 -39q0 -21 20 -43.5t46 -45.5q17 -15 34 -31.5t30.5 -34.5
t21.5 -38t8 -43q0 -39 -20 -81.5t-62 -78.5t-107 -59t-154 -23q-81 0 -139 24t-95 61.5t-54.5 84.5t-17.5 94q0 54 19 100t48 88l94 -55q-23 -34 -33.5 -66.5t-10.5 -59.5q0 -33 13 -60.5t38.5 -47.5t62.5 -31.5t86 -11.5q47 0 86.5 10t68 25t44 33.5t15.5 36.5z" />
    <glyph glyph-name="uni06D2" unicode="&#x6d2;" horiz-adv-x="890" arabic-form="isolated" 
d="M364 256q-48 -33 -89.5 -49t-75.5 -27q-38 -12 -62.5 -24t-24.5 -35q0 -15 19.5 -23.5t54 -13.5t82.5 -6.5t105 -1.5t123 3.5t129 9.5t116.5 13.5t86.5 15.5l-10 -110q-52 -11 -115 -18.5t-125.5 -12t-118.5 -6.5t-94 -2q-106 0 -176 9.5t-112 27.5t-59 44t-17 59
q0 38 16.5 65t43 47t59 34t64.5 26q39 14 79 32.5t71 48.5z" />
    <glyph glyph-name="uni06D3" unicode="&#x6d3;" horiz-adv-x="890" arabic-form="isolated" 
d="M364 256q-48 -33 -89.5 -49t-75.5 -27q-38 -12 -62.5 -24t-24.5 -35q0 -15 19.5 -23.5t54 -13.5t82.5 -6.5t105 -1.5t123 3.5t129 9.5t116.5 13.5t86.5 15.5l-10 -110q-52 -11 -115 -18.5t-125.5 -12t-118.5 -6.5t-94 -2q-106 0 -176 9.5t-112 27.5t-59 44t-17 59
q0 38 16.5 65t43 47t59 34t64.5 26q39 14 79 32.5t71 48.5zM243 516q-11 3 -23.5 5.5t-26.5 2.5q-20 0 -34 -12t-14 -36q0 -20 19 -38t58 -18h43v-74h-234v74h62q-11 14 -20.5 33t-9.5 42q0 40 30.5 70.5t93.5 30.5q16 0 34.5 -2.5t33.5 -7.5z" />
    <glyph glyph-name="uni06D5.fina" unicode="&#x6d5;" horiz-adv-x="473" 
d="M291 116v89q0 57 -21.5 87.5t-63.5 30.5q-18 0 -34.5 -7.5t-29.5 -21t-21 -32.5t-8 -43q0 -28 9 -47.5t24 -32t34.5 -18t40.5 -5.5h70zM224 0q-61 0 -103.5 17.5t-69.5 46t-39 64.5t-12 73q0 47 16 89.5t44 74.5t67 50.5t86 18.5q43 0 78.5 -14.5t61 -41t39 -63
t13.5 -80.5v-119h71q14 0 20.5 -8t6.5 -19v-61q0 -8 -6.5 -18t-20.5 -10h-252z" />
    <glyph glyph-name="uniFB51" unicode="&#x671;" horiz-adv-x="255" arabic-form="final" 
d="M11 831h52v59h43q12 14 28 22.5t33 8.5q33 0 53.5 -21.5t20.5 -53.5v-60h-230v45zM196 838q0 19 -9 28.5t-23 9.5q-16 0 -30 -12.5t-21 -32.5h83v7zM75 716h114v-600h68q16 0 22 -8t6 -19v-61q0 -8 -7 -18t-21 -10h-182v716z" />
    <glyph glyph-name="uniFB57" unicode="&#x67e;" horiz-adv-x="871" arabic-form="final" 
d="M834 0q-43 0 -68.5 19.5t-39.5 45.5q-17 -32 -49 -48.5t-74 -16.5h-460q-39 0 -66 12t-43.5 32t-24 47t-7.5 56v169h114v-149q0 -28 8 -39.5t26 -11.5h449q23 0 30 14t7 38v230h114v-190q0 -40 18.5 -66t68.5 -26h37q15 0 21 -8t6 -19v-61q0 -8 -6.5 -18t-20.5 -10h-40z
M436 -256q0 -24 -17.5 -40.5t-43.5 -16.5q-25 0 -43 16.5t-18 40.5q0 25 18 41.5t43 16.5q26 0 43.5 -16.5t17.5 -41.5zM513 -127q0 -24 -17 -41t-43 -17t-43 17t-17 41t17 41t43 17t43 -17t17 -41zM357 -127q0 -24 -17 -41t-43 -17t-43 17t-17 41t17 41t43 17t43 -17
t17 -41z" />
    <glyph glyph-name="uniFB58" unicode="&#x67e;" horiz-adv-x="323" arabic-form="initial" 
d="M-4 0q-14 0 -20 8t-6 18v59q0 11 6.5 21t19.5 10h137v282h114v-398h-251zM244 -256q0 -24 -17.5 -40.5t-43.5 -16.5q-25 0 -43 16.5t-18 40.5q0 25 18 41.5t43 16.5q26 0 43.5 -16.5t17.5 -41.5zM321 -127q0 -24 -17 -41t-43 -17t-43 17t-17 41t17 41t43 17t43 -17
t17 -41zM165 -127q0 -24 -17 -41t-43 -17t-43 17t-17 41t17 41t43 17t43 -17t17 -41z" />
    <glyph glyph-name="uniFB59" unicode="&#x67e;" horiz-adv-x="364" arabic-form="medial" 
d="M-3 0q-17 0 -22 8t-5 18v59q0 11 6.5 21t20.5 10h96q22 0 29.5 14t7.5 38v230h114v-190q0 -40 19 -66t69 -26h35q17 0 22 -8t5 -19v-61q0 -8 -6.5 -18t-20.5 -10h-38q-44 0 -70.5 21t-40.5 46q-17 -29 -47.5 -48t-72.5 -19h-101zM259 -256q0 -24 -17.5 -40.5t-43.5 -16.5
q-25 0 -43 16.5t-18 40.5q0 25 18 41.5t43 16.5q26 0 43.5 -16.5t17.5 -41.5zM336 -127q0 -24 -17 -41t-43 -17t-43 17t-17 41t17 41t43 17t43 -17t17 -41zM180 -127q0 -24 -17 -41t-43 -17t-43 17t-17 41t17 41t43 17t43 -17t17 -41z" />
    <glyph glyph-name="uniFB67" unicode="&#x679;" horiz-adv-x="871" arabic-form="final" 
d="M834 0q-43 0 -68.5 19.5t-39.5 45.5q-17 -32 -49 -48.5t-74 -16.5h-460q-39 0 -66 12t-43.5 32t-24 47t-7.5 56v169h114v-149q0 -28 8 -39.5t26 -11.5h449q23 0 30 14t7 38v230h114v-190q0 -40 18.5 -66t68.5 -26h37q15 0 21 -8t6 -19v-61q0 -8 -6.5 -18t-20.5 -10h-40z
M251 552h38v211h49v-129q15 23 36.5 33t46.5 10q43 0 67.5 -26t24.5 -68v-79h-262v48zM465 575q0 32 -13.5 43.5t-35.5 11.5q-26 0 -49.5 -20.5t-28.5 -57.5h127v23z" />
    <glyph glyph-name="uniFB68" unicode="&#x679;" horiz-adv-x="323" arabic-form="initial" 
d="M-4 0q-14 0 -20 8t-6 18v59q0 11 6.5 21t19.5 10h137v282h114v-398h-251zM50 552h38v211h49v-129q15 23 36.5 33t46.5 10q43 0 67.5 -26t24.5 -68v-79h-262v48zM264 575q0 32 -13.5 43.5t-35.5 11.5q-26 0 -49.5 -20.5t-28.5 -57.5h127v23z" />
    <glyph glyph-name="uniFB69" unicode="&#x679;" horiz-adv-x="364" arabic-form="medial" 
d="M-3 0q-17 0 -22 8t-5 18v59q0 11 6.5 21t20.5 10h96q22 0 29.5 14t7.5 38v230h114v-190q0 -40 19 -66t69 -26h35q17 0 22 -8t5 -19v-61q0 -8 -6.5 -18t-20.5 -10h-38q-44 0 -70.5 21t-40.5 46q-17 -29 -47.5 -48t-72.5 -19h-101zM45 552h38v211h49v-129q15 23 36.5 33
t46.5 10q43 0 67.5 -26t24.5 -68v-79h-262v48zM259 575q0 32 -13.5 43.5t-35.5 11.5q-26 0 -49.5 -20.5t-28.5 -57.5h127v23z" />
    <glyph glyph-name="uniFB6B" unicode="&#x6a4;" horiz-adv-x="950" arabic-form="final" 
d="M856 116h98q14 0 20 -8t6 -19v-61q0 -8 -6.5 -18t-19.5 -10h-809q-30 0 -56.5 8.5t-46 27t-31 47t-11.5 69.5v173h115v-153q0 -35 10.5 -45.5t26.5 -10.5h323q-8 11 -17 36.5t-9 65.5q0 41 16 80t45 69t69.5 48.5t90.5 18.5q43 0 77.5 -14t58.5 -39.5t37 -61.5t13 -80
v-123zM741 116v128q0 14 -4.5 28t-14.5 25.5t-25.5 18.5t-36.5 7q-19 0 -36.5 -7.5t-31 -21t-21.5 -32.5t-8 -43q0 -36 14 -56.5t31 -31.5q19 -12 46 -15h87zM614 683q0 24 17.5 40.5t43.5 16.5q25 0 43 -16.5t18 -40.5q0 -25 -18 -41.5t-43 -16.5q-26 0 -43.5 16.5
t-17.5 41.5zM537 554q0 24 17 41t43 17t43 -17t17 -41t-17 -41t-43 -17t-43 17t-17 41zM693 554q0 24 17 41t43 17t43 -17t17 -41t-17 -41t-43 -17t-43 17t-17 41z" />
    <glyph glyph-name="uniFB6C" unicode="&#x6a4;" horiz-adv-x="579" arabic-form="initial" 
d="M509 0h-512q-15 0 -21 8t-6 18v59q0 11 6.5 21t20.5 10h131q-8 11 -17 36.5t-9 65.5q0 41 16 80t45 69t70 48.5t91 18.5q43 0 77 -14t58 -39.5t37 -61.5t13 -80v-239zM394 116v128q0 14 -4.5 28t-14.5 25.5t-25.5 18.5t-36.5 7q-19 0 -36.5 -7.5t-31 -21t-22 -32.5
t-8.5 -43q0 -36 14.5 -56.5t31.5 -31.5q19 -12 46 -15h87zM256 683q0 24 17.5 40.5t43.5 16.5q25 0 43 -16.5t18 -40.5q0 -25 -18 -41.5t-43 -16.5q-26 0 -43.5 16.5t-17.5 41.5zM179 554q0 24 17 41t43 17t43 -17t17 -41t-17 -41t-43 -17t-43 17t-17 41zM335 554
q0 24 17 41t43 17t43 -17t17 -41t-17 -41t-43 -17t-43 17t-17 41z" />
    <glyph glyph-name="uniFB6D" unicode="&#x6a4;" horiz-adv-x="599" arabic-form="medial" 
d="M505 116h97q16 0 21.5 -8t5.5 -19v-61q0 -8 -6.5 -18t-20.5 -10h-605q-16 0 -21.5 8t-5.5 18v59q0 11 6.5 21t20.5 10h127q-7 11 -16.5 36.5t-9.5 65.5q0 41 16 80t45 69t70.5 48.5t91.5 18.5q42 0 76 -14t58 -39.5t37 -61.5t13 -80v-123zM390 116v128q0 14 -4.5 28
t-14.5 25.5t-25 18.5t-37 7q-19 0 -36.5 -7.5t-31 -21t-21.5 -32.5t-8 -43q0 -36 14 -56.5t31 -31.5q19 -12 46 -15h87zM247 683q0 24 17.5 40.5t43.5 16.5q25 0 43 -16.5t18 -40.5q0 -25 -18 -41.5t-43 -16.5q-26 0 -43.5 16.5t-17.5 41.5zM170 554q0 24 17 41t43 17
t43 -17t17 -41t-17 -41t-43 -17t-43 17t-17 41zM326 554q0 24 17 41t43 17t43 -17t17 -41t-17 -41t-43 -17t-43 17t-17 41z" />
    <glyph glyph-name="uniFB7B" unicode="&#x686;" horiz-adv-x="532" arabic-form="final" 
d="M351 116q-9 16 -16.5 40t-11.5 72q-5 51 -26.5 71.5t-56.5 20.5q-21 0 -53.5 -6t-60.5 -20l-28 108q12 4 30.5 9.5t41 11t46.5 9.5t45 4q46 0 77.5 -18t52.5 -45t32 -59.5t16 -61.5q4 -29 9 -54t14 -43t23.5 -28.5t37.5 -10.5h12q16 0 21.5 -8t5.5 -19v-61q0 -8 -6 -18
t-21 -10h-21q-31 0 -62.5 12.5t-52.5 31.5q-18 -28 -39.5 -36t-45.5 -8h-67q-32 0 -56 -9t-39.5 -24.5t-23.5 -35t-8 -40.5q0 -51 34.5 -82t103.5 -31q13 0 28.5 2t30.5 5t28 6.5t21 6.5l16 -104q-8 -4 -23.5 -8.5t-35.5 -8.5t-42.5 -6.5t-43.5 -2.5q-43 0 -85.5 12.5
t-76 39t-54.5 67.5t-21 99q0 54 18.5 96.5t52.5 72.5t82.5 45.5t107.5 15.5h90zM343.502 -157.531q0 -16.7373 -12.25 -28.2441t-30.4502 -11.5068q-17.501 0 -30.1006 11.5068q-12.6006 11.5068 -12.6006 28.2441q0 17.4346 12.6006 28.9414
q12.5996 11.5068 30.1006 11.5068q18.2002 0 30.4502 -11.5068t12.25 -28.9414zM397.403 -67.5684q0 -16.7373 -11.9004 -28.5928t-30.1006 -11.8555t-30.1006 11.8555t-11.9004 28.5928t11.9004 28.5928t30.1006 11.8555t30.1006 -11.8555t11.9004 -28.5928z
M288.201 -67.5684q0 -16.7373 -11.9004 -28.5928t-30.1006 -11.8555t-30.1006 11.8555q-11.8994 11.8555 -11.8994 28.5928t11.8994 28.5928q11.9004 11.8555 30.1006 11.8555t30.1006 -11.8555t11.9004 -28.5928z" />
    <glyph glyph-name="uniFB7C" unicode="&#x686;" horiz-adv-x="496" arabic-form="initial" 
d="M264 228q-5 51 -25 71.5t-58 20.5q-21 0 -52.5 -7t-60.5 -21l-29 110q12 5 31 11t40.5 11t45 8.5t46.5 3.5q43 0 74.5 -13.5t53 -38t33.5 -58.5t17 -74q2 -20 5 -39.5t10.5 -38.5t20 -35t32.5 -28v-111h-451q-15 0 -21 8t-6 18v59q0 11 6.5 21t20.5 10h312
q-9 11 -24.5 38.5t-20.5 73.5zM290 -256q0 -24 -17.5 -40.5t-43.5 -16.5q-25 0 -43 16.5t-18 40.5q0 25 18 41.5t43 16.5q26 0 43.5 -16.5t17.5 -41.5zM367 -127q0 -24 -17 -41t-43 -17t-43 17t-17 41t17 41t43 17t43 -17t17 -41zM211 -127q0 -24 -17 -41t-43 -17t-43 17
t-17 41t17 41t43 17t43 -17t17 -41z" />
    <glyph glyph-name="uniFB7D" unicode="&#x686;" horiz-adv-x="474" arabic-form="medial" 
d="M504 28q0 -8 -6.5 -18t-21.5 -10h-19q-32 0 -63.5 13t-51.5 31q-18 -28 -39.5 -36t-43.5 -8h-262q-15 0 -21 8t-6 18v59q0 11 6.5 21t20.5 10h295q-9 16 -16.5 41t-11.5 71q-5 51 -26.5 71.5t-56.5 20.5q-20 0 -51 -6.5t-62 -21.5l-28 109q12 4 31.5 10t41.5 11.5
t45.5 9.5t44.5 4q48 0 80.5 -17t53 -44t30.5 -59.5t13 -63.5q2 -20 6.5 -43.5t12.5 -44t21 -34.5t33 -14h23q16 0 22 -8t6 -19v-61zM291 -256q0 -24 -17.5 -40.5t-43.5 -16.5q-25 0 -43 16.5t-18 40.5q0 25 18 41.5t43 16.5q26 0 43.5 -16.5t17.5 -41.5zM368 -127
q0 -24 -17 -41t-43 -17t-43 17t-17 41t17 41t43 17t43 -17t17 -41zM212 -127q0 -24 -17 -41t-43 -17t-43 17t-17 41t17 41t43 17t43 -17t17 -41z" />
    <glyph glyph-name="uniFB89" unicode="&#x688;" horiz-adv-x="540" arabic-form="final" 
d="M505 0q-42 0 -69 19.5t-42 45.5q-17 -31 -48.5 -48t-71.5 -17h-236v116h228q23 0 31 12t8 38q0 40 -3 70.5t-15 50t-35.5 29.5t-64.5 10h-95v110h118q58 0 98 -16.5t64 -45.5t34.5 -68.5t10.5 -85.5q0 -51 21 -77.5t69 -26.5h36q15 0 21 -8t6 -19v-61q0 -8 -6.5 -18
t-20.5 -10h-38zM77 552h38v211h49v-129q15 23 36.5 33t46.5 10q43 0 67.5 -26t24.5 -68v-79h-262v48zM291 575q0 32 -13.5 43.5t-35.5 11.5q-26 0 -49.5 -20.5t-28.5 -57.5h127v23z" />
    <glyph glyph-name="uniFB8B" unicode="&#x698;" horiz-adv-x="385" arabic-form="final" 
d="M356 0q-29 0 -53 13t-39 30v-27q0 -45 -12 -84t-36 -68t-59 -45.5t-81 -16.5q-18 0 -34.5 1.5t-28.5 3.5q-8 1 -14.5 2t-12.5 3l12 114l28 -6q12 -2 25.5 -3.5t24.5 -1.5q44 0 59 28t15 82v373h114v-190q0 -40 18.5 -66t70.5 -26h35q17 0 22 -8t5 -19v-61q0 -8 -6 -18
t-21 -10h-32zM144 683q0 24 17.5 40.5t43.5 16.5q25 0 43 -16.5t18 -40.5q0 -25 -18 -41.5t-43 -16.5q-26 0 -43.5 16.5t-17.5 41.5zM67 554q0 24 17 41t43 17t43 -17t17 -41t-17 -41t-43 -17t-43 17t-17 41zM223 554q0 24 17 41t43 17t43 -17t17 -41t-17 -41t-43 -17
t-43 17t-17 41z" />
    <glyph glyph-name="uniFB8D" unicode="&#x691;" horiz-adv-x="385" arabic-form="final" 
d="M356 0q-29 0 -53 13t-39 30v-27q0 -45 -12 -84t-36 -68t-59 -45.5t-81 -16.5q-18 0 -34.5 1.5t-28.5 3.5q-8 1 -14.5 2t-12.5 3l12 114l28 -6q12 -2 25.5 -3.5t24.5 -1.5q44 0 59 28t15 82v373h114v-190q0 -40 18.5 -66t70.5 -26h35q17 0 22 -8t5 -19v-61q0 -8 -6 -18
t-21 -10h-32zM67 552h38v211h49v-129q15 23 36.5 33t46.5 10q43 0 67.5 -26t24.5 -68v-79h-262v48zM281 575q0 32 -13.5 43.5t-35.5 11.5q-26 0 -49.5 -20.5t-28.5 -57.5h127v23z" />
    <glyph glyph-name="uniFB8F" unicode="&#x6a9;" horiz-adv-x="869" arabic-form="final" 
d="M599 116q24 0 29.5 13t5.5 37q0 43 -3.5 71.5t-15.5 45.5t-35 24.5t-62 7.5h-127v100l195 309l88 -65l-152 -234h18q46 0 84 -10.5t65.5 -34.5t42.5 -63t15 -97q1 -57 22.5 -80.5t66.5 -23.5h37q16 0 21 -8t5 -19v-61q0 -8 -6 -18t-20 -10h-40q-45 0 -70 20t-38 45
q-16 -33 -48 -49t-74 -16h-461q-39 0 -65.5 12t-43 32t-24 47t-7.5 56v169h114v-149q0 -17 3 -27.5t7.5 -15.5t10.5 -6.5t13 -1.5h449z" />
    <glyph glyph-name="uniFB90" unicode="&#x6a9;" horiz-adv-x="486" arabic-form="initial" 
d="M-3 0q-15 0 -21 8t-6 18v59q0 11 6.5 21t20.5 10h308v95q0 36 -9.5 56.5t-25.5 31t-37.5 13t-45.5 2.5h-121v101l194 308l94 -63l-153 -235h10q40 0 78 -9t66.5 -32t46 -63t17.5 -101v-220h-422z" />
    <glyph glyph-name="uniFB91" unicode="&#x6a9;" horiz-adv-x="539" arabic-form="medial" 
d="M-3 0q-15 0 -21 8t-6 18v59q0 11 6.5 21t20.5 10h267q24 0 31.5 13t7.5 37q0 43 -3 71.5t-15 45.5t-35 24t-63 7h-126v101l194 308l94 -63l-153 -235h13q46 0 84 -10.5t65.5 -34.5t42.5 -63t15 -97q1 -57 23 -80.5t67 -23.5h37q14 0 20 -8t6 -19v-61q0 -8 -6.5 -18
t-19.5 -10h-40q-44 0 -69.5 20t-39.5 45q-17 -30 -50 -47.5t-72 -17.5h-275z" />
    <glyph glyph-name="uniFB93" unicode="&#x6af;" horiz-adv-x="869" arabic-form="final" 
d="M262 489l203 311l83 -56l-201 -309zM599 116q24 0 29.5 13t5.5 37q0 43 -3.5 71.5t-15.5 45.5t-35 24.5t-62 7.5h-127v100l195 309l88 -65l-152 -234h18q46 0 84 -10.5t65.5 -34.5t42.5 -63t15 -97q1 -57 22.5 -80.5t66.5 -23.5h37q16 0 21 -8t5 -19v-61q0 -8 -6 -18
t-20 -10h-40q-45 0 -70 20t-38 45q-16 -33 -48 -49t-74 -16h-461q-39 0 -65.5 12t-43 32t-24 47t-7.5 56v169h114v-149q0 -17 3 -27.5t7.5 -15.5t10.5 -6.5t13 -1.5h449z" />
    <glyph glyph-name="uniFB94" unicode="&#x6af;" horiz-adv-x="522" arabic-form="initial" 
d="M-30 489l204 311l82 -56l-200 -309zM-8 0q-14 0 -20 8t-6 18v59q0 11 6.5 21t19.5 10h348v95q0 36 -9.5 56.5t-25.5 31t-37 13t-45 2.5h-122v101l194 308l94 -63l-153 -235h10q40 0 78 -9t66.5 -32t46 -63t17.5 -101v-220h-462z" />
    <glyph glyph-name="uniFB95" unicode="&#x6af;" horiz-adv-x="585" arabic-form="medial" 
d="M-29 489l204 311l83 -56l-200 -309zM-10 0q-16 0 -22 8t-6 18v59q0 11 7 21t21 10h316q24 0 31.5 13t7.5 37q0 43 -3.5 71.5t-15.5 45.5t-35 24.5t-63 7.5h-125v100l195 309l86 -65l-151 -234h18q45 0 83 -10.5t65.5 -34.5t43 -63t15.5 -97q1 -57 23 -80.5t67 -23.5h36
q15 0 21 -8t6 -19v-61q0 -8 -6.5 -18t-20.5 -10h-39q-44 0 -69.5 20t-39.5 45q-17 -30 -50.5 -47.5t-72.5 -17.5h-323z" />
    <glyph glyph-name="uniFB9F" unicode="&#x6ba;" horiz-adv-x="679" arabic-form="final" 
d="M644 0q-26 0 -44 8t-30 19q-8 -63 -35 -108t-66.5 -74t-88 -42.5t-98.5 -13.5q-82 0 -136 23.5t-86.5 61t-46 84t-13.5 91.5q0 48 17 99t47 90l96 -55q-23 -34 -33 -68t-10 -66q0 -24 8 -49.5t27.5 -46.5t52 -34.5t82.5 -13.5q42 0 74 13t53.5 34t32 49t10.5 58
q0 42 -16.5 94t-43.5 95l107 61q20 -39 33.5 -75t20.5 -62q9 -32 26.5 -44t59.5 -12h37q16 0 22 -8t6 -19v-61q0 -8 -7 -18t-21 -10h-37z" />
    <glyph glyph-name="uniFBA5" unicode="&#x6c0;" horiz-adv-x="473" arabic-form="final" 
d="M291 116v89q0 57 -21.5 87.5t-63.5 30.5q-18 0 -34.5 -7.5t-29.5 -21t-21 -32.5t-8 -43q0 -28 9 -47.5t24 -32t34.5 -18t40.5 -5.5h70zM224 0q-61 0 -103.5 17.5t-69.5 46t-39 64.5t-12 73q0 47 16 89.5t44 74.5t67 50.5t86 18.5q43 0 78.5 -14.5t61 -41t39 -63
t13.5 -80.5v-119h71q14 0 20.5 -8t6.5 -19v-61q0 -8 -6.5 -18t-20.5 -10h-252zM298 656q-11 3 -23.5 5.5t-26.5 2.5q-20 0 -34 -12t-14 -36q0 -20 19 -38t58 -18h43v-74h-234v74h62q-11 14 -20.5 33t-9.5 42q0 40 30.5 70.5t93.5 30.5q16 0 34.5 -2.5t33.5 -7.5z" />
    <glyph glyph-name="uniFBA7" unicode="&#x6c1;" horiz-adv-x="326" arabic-form="final" 
d="M302 0q-23 0 -42 8t-35 20.5t-28.5 27.5t-22.5 28q-12 15 -22 27t-20 12q-24 0 -36 -32t-12 -77v-15t2 -23h-84q-3 13 -4 25.5t-1 23.5q0 48 9.5 87t26 66t40 42t50.5 15q33 0 58.5 -20.5t40.5 -41.5q16 -22 36 -39.5t52 -17.5h20q16 0 21 -7t5 -16v-68q0 -11 -5.5 -18
t-20.5 -7h-28z" />
    <glyph glyph-name="uniFBA8" unicode="&#x6c1;" horiz-adv-x="323" arabic-form="initial" 
d="M-4 0q-14 0 -20 8t-6 18v59q0 11 6.5 21t19.5 10h137v282h114v-398h-42q-39 -51 -39 -90q0 -11 7 -20t23 -9q7 0 16.5 1.5t20.5 6.5q-7 -48 -29 -70t-54 -22q-40 0 -58 24t-18 59q0 24 8.5 54.5t31.5 65.5h-118z" />
    <glyph glyph-name="uniFBA9" unicode="&#x6c1;" horiz-adv-x="485" arabic-form="medial" 
d="M-3 0q-17 0 -22 7t-5 16v69q0 12 6 18t21 6h234q-7 -24 -13 -49t-10 -47.5t-6 -41t-2 -28.5q0 -70 34 -88q7 51 26 97.5t49 81t70 55t90 20.5h19q17 0 22 -7t5 -16v-68q0 -11 -6 -18t-21 -7h-26q-46 0 -75.5 -27.5t-47.5 -70t-26.5 -93.5t-12.5 -97q-101 29 -148 86.5
t-47 127.5q0 18 1.5 36.5t5.5 37.5h-115z" />
    <glyph glyph-name="uniFBAB" unicode="&#x6be;" horiz-adv-x="629" arabic-form="final" 
d="M278 116h75q22 0 38.5 9.5t27.5 24.5t16 34t5 38q0 51 -22 77t-57 26q-15 0 -30 -6t-27 -20t-19 -37.5t-7 -57.5v-88zM375 -212q34 0 58.5 21.5t24.5 63.5q0 11 -5 27.5t-13.5 34.5t-21 35.5t-27.5 29.5h-109v-119q0 -26 7.5 -44t20.5 -29t30 -15.5t35 -4.5zM175 116v109
q0 51 16 90.5t43 66t61.5 40t72.5 13.5t70 -13t55.5 -37t36.5 -57t13 -72q0 -41 -13.5 -78.5t-27.5 -61.5h130q16 0 21.5 -8t5.5 -19v-61q0 -8 -6 -18t-21 -10h-118q23 -29 36 -65t13 -78q0 -35 -12 -67t-36 -56.5t-60 -39t-83 -14.5q-51 0 -88 16t-60.5 42.5t-34.5 59.5
t-11 66v136h-32q-33 0 -43 -21.5t-10 -57.5h-67q-11 17 -18.5 40t-7.5 45q0 33 9.5 54.5t25.5 33.5t36.5 17t43.5 5h60z" />
    <glyph glyph-name="uniFBAC" unicode="&#x6be;" horiz-adv-x="739" arabic-form="initial" 
d="M336 319q-55 -10 -87.5 -60t-32.5 -131v-12h120v203zM438 116h117v28q0 80 -33 122t-84 53v-203zM-4 0q-16 0 -21 8t-5 18v59q0 11 6.5 21t19.5 10h112q0 63 17 116.5t47 94t72 66.5t92 34v60h102v-60q118 -16 174.5 -94t56.5 -198v-135h-673z" />
    <glyph glyph-name="uniFBAD" unicode="&#x6be;" horiz-adv-x="561" arabic-form="medial" 
d="M205 116h90q17 0 30 10t21.5 26.5t13 39t4.5 47.5q0 38 -19.5 62t-51.5 24q-14 0 -29 -6.5t-28.5 -25t-22 -51.5t-8.5 -85v-41zM209 0v-83q0 -36 9.5 -61t24 -40t32.5 -21.5t35 -6.5q34 0 55 23t21 53q0 15 -7 33t-18.5 36.5t-27 36t-32.5 30.5h-92zM1 0q-15 0 -21 8
t-6 18v59q0 11 6.5 21t20.5 10h101v56q0 64 16.5 113t44 82.5t64 50.5t77.5 17q75 0 120 -47t45 -132q0 -43 -12.5 -80t-28.5 -60h131q16 0 22 -8t6 -19v-61q0 -8 -6.5 -18t-21.5 -10h-118q21 -29 35 -63.5t14 -63.5q0 -41 -13 -76t-37 -61t-57.5 -41t-74.5 -15
q-55 0 -93.5 19.5t-63 51.5t-35.5 72.5t-11 83.5v93h-104z" />
    <glyph glyph-name="uniFBAF" unicode="&#x6d2;" horiz-adv-x="446" arabic-form="final" 
d="M278 0q-54 0 -88 -5.5t-52.5 -14t-25.5 -18t-7 -16.5q0 -14 11 -24.5t38.5 -18t74.5 -11.5t120 -4q63 0 120 1.5t112 5.5t109.5 10t112.5 15l-9 -105q-87 -16 -202.5 -26.5t-259.5 -10.5q-92 0 -155 13t-102 35t-56.5 51t-17.5 61q0 49 28 83t74 55t105.5 30.5t122.5 9.5
h136q16 0 21 -7t5 -16v-68q0 -25 -26 -25h-189z" />
    <glyph glyph-name="uniFBB1" unicode="&#x6d3;" horiz-adv-x="446" arabic-form="final" 
d="M278 0q-54 0 -88 -5.5t-52.5 -14t-25.5 -18t-7 -16.5q0 -14 11 -24.5t38.5 -18t74.5 -11.5t120 -4q63 0 120 1.5t112 5.5t109.5 10t112.5 15l-9 -105q-87 -16 -202.5 -26.5t-259.5 -10.5q-92 0 -155 13t-102 35t-56.5 51t-17.5 61q0 49 28 83t74 55t105.5 30.5t122.5 9.5
h136q16 0 21 -7t5 -16v-68q0 -25 -26 -25h-189zM233 341q-11 3 -23.5 5.5t-26.5 2.5q-20 0 -34 -12t-14 -36q0 -20 19 -38t58 -18h43v-74h-234v74h62q-11 14 -20.5 33t-9.5 42q0 40 30.5 70.5t93.5 30.5q16 0 34.5 -2.5t33.5 -7.5z" />
    <glyph glyph-name="uniFBE8" unicode="&#x649;" horiz-adv-x="323" arabic-form="initial" 
d="M-4 0q-14 0 -20 8t-6 18v59q0 11 6.5 21t19.5 10h137v282h114v-398h-251z" />
    <glyph glyph-name="uniFBE9" unicode="&#x649;" horiz-adv-x="364" arabic-form="medial" 
d="M-3 0q-17 0 -22 8t-5 18v59q0 11 6.5 21t20.5 10h96q22 0 29.5 14t7.5 38v230h114v-190q0 -40 19 -66t69 -26h35q17 0 22 -8t5 -19v-61q0 -8 -6.5 -18t-20.5 -10h-38q-44 0 -70.5 21t-40.5 46q-17 -29 -47.5 -48t-72.5 -19h-101z" />
    <glyph glyph-name="uniFBFD" unicode="&#x6cc;" horiz-adv-x="944" arabic-form="final" 
d="M769 0v182q0 34 -6.5 54.5t-20 31.5t-34 14.5t-47.5 3.5h-9v-211q0 -60 -20 -112.5t-62 -91.5t-107 -62t-154 -23q-81 0 -139 24t-95 61.5t-54.5 84.5t-17.5 94q0 54 18.5 100t47.5 88l94 -55q-23 -34 -33.5 -66.5t-10.5 -59.5q0 -33 13 -60.5t38.5 -47.5t63 -31.5
t85.5 -11.5t88 9.5t69.5 28t45.5 46t16 62.5v346h139q106 0 156 -51t50 -154v-77h64q14 0 20.5 -8t6.5 -19v-61q0 -8 -6.5 -18t-20.5 -10h-178z" />
    <glyph glyph-name="uniFBFE" unicode="&#x6cc;" horiz-adv-x="323" arabic-form="initial" 
d="M-4 0q-14 0 -20 8t-6 18v59q0 11 6.5 21t19.5 10h137v282h114v-398h-251zM4 -126q0 24 17 40.5t43 16.5t43 -16.5t17 -40.5q0 -25 -17 -41.5t-43 -16.5t-43 16.5t-17 41.5zM159 -126q0 24 17 40.5t43 16.5t43 -16.5t17 -40.5q0 -25 -17 -41.5t-43 -16.5t-43 16.5
t-17 41.5z" />
    <glyph glyph-name="uniFBFF" unicode="&#x6cc;" horiz-adv-x="364" arabic-form="medial" 
d="M-3 0q-17 0 -22 8t-5 18v59q0 11 6.5 21t20.5 10h96q22 0 29.5 14t7.5 38v230h114v-190q0 -40 19 -66t69 -26h35q17 0 22 -8t5 -19v-61q0 -8 -6.5 -18t-20.5 -10h-38q-44 0 -70.5 21t-40.5 46q-17 -29 -47.5 -48t-72.5 -19h-101zM49 -126q0 24 17 40.5t43 16.5t43 -16.5
t17 -40.5q0 -25 -17 -41.5t-43 -16.5t-43 16.5t-17 41.5zM204 -126q0 24 17 40.5t43 16.5t43 -16.5t17 -40.5q0 -25 -17 -41.5t-43 -16.5t-43 16.5t-17 41.5z" />
    <glyph glyph-name="uniFDF2" unicode="&#xfdf2;" horiz-adv-x="1353" arabic-form="isolated" 
d="M224 0q-61 0 -103.5 17.5t-69.5 46t-39 64.5t-12 73q0 47 16 89.5t44 74.5t67 50.5t86 18.5q43 0 78.5 -14.5t61 -41t39 -63t13.5 -80.5v-119h145q22 0 29.5 14t7.5 38v548h115v-508q0 -40 18.5 -66t69.5 -26h138v600h113v-716h-255q-43 0 -69.5 20.5t-40.5 45.5
q-17 -33 -48 -49.5t-73 -16.5h-331zM291 116v89q0 57 -21.5 87.5t-63.5 30.5q-18 0 -34.5 -7.5t-29.5 -21t-21 -32.5t-8 -43q0 -28 9 -47.5t24 -32t34.5 -18t40.5 -5.5h70zM1166 716h113v-716h-113v716z" />
    <glyph glyph-name="uniFDFA" unicode="&#xfdfa;" horiz-adv-x="1057" arabic-form="isolated" 
d="M1017 437q0 -14 -16 -39q-15 -24 -31 -31q-47 -21 -116 -21q-11 0 -23 0.5t-25 1.5q-24 -47 -38 -47q-4 0 -4 6q0 16 22 47q-43 16 -48 26q-41 -26 -50 -26q4 -71 10.5 -115t14.5 -61q19 -36 84 -40l2 2q-21 16 -21 43q0 32 32 76q24 32 61 32q27 0 53 -17q24 -17 24 -31
q-26 9 -52 9q-34 0 -65 -14q-26 -14 -26 -27q0 -14 25 -39q23 -24 44 -29q18 1 68 18q25 8 42 14t25 11l-17 -37q-101 -53 -191 -53q-97 0 -119 73q-30 -65 -57 -65q-26 0 -67 44q-65 -56 -197 -56q-20 0 -37.5 1.5t-32.5 3.5q5 -34 9 -52q9 -36 23 -50q44 -44 176 -44
q112 0 165 32q15 37 28 37q4 0 4 -8q0 -14 -12 -44q6 -13 27 -13q26 0 49 12q21 66 33 66q4 0 4 -11q0 -20 -10 -43q29 -13 44 -13q6 0 8 3q1 1 -8 39l17 36q12 -36 12 -52q0 -67 -44 -67q-23 0 -48 19q-15 -26 -59 -26q-48 0 -48 26q-19 -13 -64 -24q-55 -11 -121 -11
q-97 0 -143 28q-59 34 -60 126l-22 -32q-17 -25 -26 -26q12 -21 12 -41q0 -26 -16 -42q-8 -8 -21 -8q-20 0 -61 23q-14 -31 -42 -47q-3 -2 -9.5 -3t-13.5 -1.5t-13 -1t-9 -1.5l-11 -4q-6 0 -6 5q0 4 24 15q32 12 39 19l34 26q-10 16 -10 40q0 21 18 41q18 21 34 21l6 -2
q16 -10 29 -10q18 0 36 23l23 42q-38 12 -55 27q-30 27 -39 85h-2q-29 -50 -79 -50q-17 0 -39 8q-16 7 -16 12q0 25 43 58q20 16 41.5 26.5t43.5 17.5l-2 17l20 33q7 -108 21 -141q14 -32 56 -45l-13 132l19 43l17 -180q52 -6 95 -6q104 0 177 40q14 38 19 38q4 0 4 -9
q0 -12 -4 -25q38 -35 59 -35q26 0 42 43l-13 161q-74 -3 -88 74h-2l-7 -24.5t-7 -17.5q-11 -26 -27 -30l2 -2q70 4 70 -39q0 -30 -25 -46q-86 -59 -160 -59q-46 0 -74 23.5t-28 65.5q0 34 16 67q-28 8 -38 43h-2q-15 -51 -55 -51q-49 0 -47 77l-27 -24q-7 -7 -39 -7
q-49 0 -49 18q0 12 13 31q14 23 25 27l76 37v10l17 36l4 -120q1 -42 32 -42q15 0 29.5 10.5t16.5 22.5l-16 114l18 39l28 -161q9 -21 33 -21q23 0 23 13q0 23 -16 74l-10 32t-10 33l13 33q40 -123 40 -157q0 -23 -10 -44q-10 -28 -25 -28q-5 0 -9 3q-7 -18 -7 -39
q0 -75 91 -75q71 0 142 48q2 2 2 3q0 6 -38 12q-60 9 -61 10q-12 9 13 40q60 25 64 53q1 2 1 14q0 49 -5 106.5t-15 124.5l17 56q12 -106 21.5 -169.5t16.5 -86.5q18 -57 72 -66l-5 96l21 45l8 -140q28 10 60 36l30 -21q19 -12 39 -15q11 12 27.5 25.5t37.5 29.5
q53 38 70 38q18 0 41 -14q26 -15 26 -33zM1008 2q0 -50 -39 -108q-42 -64 -89 -64q-24 0 -59 16q-37 16 -37 23q0 4 5 4q7 0 27 -7q26 -8 35 -8q68 -2 140 106l-7 22q-18 -26 -37 -26q-14 0 -24.5 13t-11.5 28q-2 22 15 54q16 31 28 31t32 -24q22 -25 22 -60zM970 639
q-38 -14 -116 -51q-96 -47 -96 -61q0 -11 26 -25l-9 -24q-33 10 -33 40t26 44q126 73 211 102zM476 447q-3 -66 -13 -73l-25 242l22 57zM602 37l-26 -31l-48 35l-28 -36l-50 36l29 35l47 -35l27 33zM989 420q0 7 -18 16q-17 9 -26 9q-21 0 -60 -24l-27 -18t-20 -16
q3 -1 20 -1q20 0 40 2t42 6q49 10 49 26zM632 -121q0 -10 -0.5 -17.5t-1.5 -12.5q-6 -13 -25 -13q-10 0 -14 4q-15 -16 -30 -16q-8 0 -16.5 8.5t-12.5 8.5q-8 0 -37 -17q-29 -18 -70 -18q-44 0 -44 8q0 7 32 7q17 0 29 0.5t17 1.5q17 3 35 16q28 19 40 19q8 0 19 -8t13 -8
q15 0 18 17q1 13 11 13q4 0 4 -6q0 -7 -1 -9q2 -5 11 -6q12 0 12 12q0 16 11 16zM815 705l-6 -22l-195 -96l4 25zM169 263q-88 -34 -88 -52q0 -10 31 -10q33 0 59 24zM324 665q0 -32 -21 -32q-13 0 -21 8q-18 -15 -30 -15q-21 0 -21 27q0 19 3 27l6 6q-1 -37 17 -37
q12 0 19 16l-2 23l9 14l4 -30q1 -16 15 -16q12 0 11 15l-3 22l7 10q7 -17 7 -38zM189 487q-10 -5 -20 -9t-21 -8q-33 -16 -34 -24q-2 -11 25 -11q29 0 51 13zM214 -38q-4 20 -24 34t-34 14t-14 -12q0 -13 26 -27q24 -15 39 -15q8 0 7 6zM979 10q-6 32 -26 32q-16 0 -20 -25
q4 -18 31 -18q13 0 15 11z" />
    <glyph glyph-name="uniFE82" unicode="&#x622;" horiz-adv-x="255" arabic-form="final" 
d="M75 716h114v-600h68q16 0 22 -8t6 -19v-61q0 -8 -7 -18t-21 -10h-182v716zM-60 849q26 30 50.5 40.5t48.5 10.5q15 0 38 -8.5t48 -19.5q26 -11 50.5 -20.5t44.5 -9.5q22 0 35 15t20 33l48 -22q-19 -46 -42 -64.5t-65 -18.5q-23 0 -45.5 8.5t-45.5 19.5t-45 19.5t-46 8.5
q-14 0 -29 -7.5t-29 -19.5z" />
    <glyph glyph-name="uniFE84" unicode="&#x623;" horiz-adv-x="255" arabic-form="final" 
d="M75 716h114v-600h68q16 0 22 -8t6 -19v-61q0 -8 -7 -18t-21 -10h-182v716zM196 923q-18 5 -36 5q-15 0 -25 -8.5t-10 -25.5q0 -15 13.5 -28t42.5 -13h31v-53h-169v53h45q-8 11 -15 24t-7 30q0 29 22 51t67 22q12 0 25.5 -2t24.5 -5z" />
    <glyph glyph-name="uniFE86" unicode="&#x624;" horiz-adv-x="557" arabic-form="final" 
d="M348 116v89q0 57 -22.5 87.5t-62.5 30.5q-18 0 -34.5 -7.5t-29.5 -21t-21 -32.5t-8 -43q0 -28 9 -47.5t24 -32t34.5 -18t40.5 -5.5h70zM461 0q-3 -58 -23 -99.5t-54 -67.5t-80 -38.5t-101 -12.5q-23 0 -48 1.5t-55 6.5l8 112q29 -4 55 -6t45 -2q28 0 53 4t44.5 15.5
t31 32t12.5 54.5h-67q-62 0 -104.5 17.5t-69 46t-38.5 64.5t-12 73q0 47 15.5 89.5t43.5 74.5t66.5 50.5t85.5 18.5q45 0 80.5 -14.5t60.5 -41t38 -63t13 -80.5v-119h98q16 0 22 -8t6 -19v-61q0 -8 -6.5 -18t-21.5 -10h-98zM356 656q-11 3 -23.5 5.5t-26.5 2.5
q-20 0 -34 -12t-14 -36q0 -20 19 -38t58 -18h43v-74h-234v74h62q-11 14 -20.5 33t-9.5 42q0 40 30.5 70.5t93.5 30.5q16 0 34.5 -2.5t33.5 -7.5z" />
    <glyph glyph-name="uniFE88" unicode="&#x625;" horiz-adv-x="255" arabic-form="final" 
d="M75 716h114v-600h68q16 0 22 -8t6 -19v-61q0 -8 -7 -18t-21 -10h-182v716zM194 -141q-18 5 -36 5q-15 0 -25 -8.5t-10 -25.5q0 -15 13.5 -28t42.5 -13h31v-53h-169v53h45q-8 11 -15 24t-7 30q0 29 22 51t67 22q12 0 25.5 -2t24.5 -5z" />
    <glyph glyph-name="uniFE8A" unicode="&#x626;" horiz-adv-x="944" arabic-form="final" 
d="M769 0v182q0 34 -6.5 54.5t-20 31.5t-34 14.5t-47.5 3.5h-9v-211q0 -60 -20 -112.5t-62 -91.5t-107 -62t-154 -23q-81 0 -139 24t-95 61.5t-54.5 84.5t-17.5 94q0 54 18.5 100t47.5 88l94 -55q-23 -34 -33.5 -66.5t-10.5 -59.5q0 -33 13 -60.5t38.5 -47.5t63 -31.5
t85.5 -11.5t88 9.5t69.5 28t45.5 46t16 62.5v346h139q106 0 156 -51t50 -154v-77h64q14 0 20.5 -8t6.5 -19v-61q0 -8 -6.5 -18t-20.5 -10h-178zM200 494q-11 3 -23.5 5.5t-26.5 2.5q-20 0 -34 -12t-14 -36q0 -20 19 -38t58 -18h43v-74h-234v74h62q-11 14 -20.5 33t-9.5 42
q0 40 30.5 70.5t93.5 30.5q16 0 34.5 -2.5t33.5 -7.5z" />
    <glyph glyph-name="uniFE8B" unicode="&#x626;" horiz-adv-x="323" arabic-form="initial" 
d="M-4 0q-14 0 -20 8t-6 18v59q0 11 6.5 21t19.5 10h137v282h114v-398h-251zM272 656q-11 3 -23.5 5.5t-26.5 2.5q-20 0 -34 -12t-14 -36q0 -20 19 -38t58 -18h43v-74h-234v74h62q-11 14 -20.5 33t-9.5 42q0 40 30.5 70.5t93.5 30.5q16 0 34.5 -2.5t33.5 -7.5z" />
    <glyph glyph-name="uniFE8C" unicode="&#x626;" horiz-adv-x="364" arabic-form="medial" 
d="M-3 0q-17 0 -22 8t-5 18v59q0 11 6.5 21t20.5 10h96q22 0 29.5 14t7.5 38v230h114v-190q0 -40 19 -66t69 -26h35q17 0 22 -8t5 -19v-61q0 -8 -6.5 -18t-20.5 -10h-38q-44 0 -70.5 21t-40.5 46q-17 -29 -47.5 -48t-72.5 -19h-101zM281 656q-11 3 -23.5 5.5t-26.5 2.5
q-20 0 -34 -12t-14 -36q0 -20 19 -38t58 -18h43v-74h-234v74h62q-11 14 -20.5 33t-9.5 42q0 40 30.5 70.5t93.5 30.5q16 0 34.5 -2.5t33.5 -7.5z" />
    <glyph glyph-name="uniFE8E" unicode="&#x627;" horiz-adv-x="255" arabic-form="final" 
d="M75 716h114v-600h68q16 0 22 -8t6 -19v-61q0 -8 -7 -18t-21 -10h-182v716z" />
    <glyph glyph-name="uniFE90" unicode="&#x628;" horiz-adv-x="871" arabic-form="final" 
d="M834 0q-43 0 -68.5 19.5t-39.5 45.5q-17 -32 -49 -48.5t-74 -16.5h-460q-39 0 -66 12t-43.5 32t-24 47t-7.5 56v169h114v-149q0 -28 8 -39.5t26 -11.5h449q23 0 30 14t7 38v230h114v-190q0 -40 18.5 -66t68.5 -26h37q15 0 21 -8t6 -19v-61q0 -8 -6.5 -18t-20.5 -10h-40z
M319 -126q0 24 17.5 40.5t43.5 16.5q25 0 42.5 -16.5t17.5 -40.5q0 -25 -17.5 -41.5t-42.5 -16.5q-26 0 -43.5 16.5t-17.5 41.5z" />
    <glyph glyph-name="uniFE91" unicode="&#x628;" horiz-adv-x="323" arabic-form="initial" 
d="M-4 0q-14 0 -20 8t-6 18v59q0 11 6.5 21t19.5 10h137v282h114v-398h-251zM114 -126q0 24 17.5 40.5t43.5 16.5q25 0 42.5 -16.5t17.5 -40.5q0 -25 -17.5 -41.5t-42.5 -16.5q-26 0 -43.5 16.5t-17.5 41.5z" />
    <glyph glyph-name="uniFE92" unicode="&#x628;" horiz-adv-x="364" arabic-form="medial" 
d="M-3 0q-17 0 -22 8t-5 18v59q0 11 6.5 21t20.5 10h96q22 0 29.5 14t7.5 38v230h114v-190q0 -40 19 -66t69 -26h35q17 0 22 -8t5 -19v-61q0 -8 -6.5 -18t-20.5 -10h-38q-44 0 -70.5 21t-40.5 46q-17 -29 -47.5 -48t-72.5 -19h-101zM117 -126q0 24 17.5 40.5t43.5 16.5
q25 0 42.5 -16.5t17.5 -40.5q0 -25 -17.5 -41.5t-42.5 -16.5q-26 0 -43.5 16.5t-17.5 41.5z" />
    <glyph glyph-name="uniFE94" unicode="&#x629;" horiz-adv-x="473" arabic-form="final" 
d="M291 116v89q0 57 -21.5 87.5t-63.5 30.5q-18 0 -34.5 -7.5t-29.5 -21t-21 -32.5t-8 -43q0 -28 9 -47.5t24 -32t34.5 -18t40.5 -5.5h70zM224 0q-61 0 -103.5 17.5t-69.5 46t-39 64.5t-12 73q0 47 16 89.5t44 74.5t67 50.5t86 18.5q43 0 78.5 -14.5t61 -41t39 -63
t13.5 -80.5v-119h71q14 0 20.5 -8t6.5 -19v-61q0 -8 -6.5 -18t-20.5 -10h-252zM72 554q0 24 17 41t43 17t43 -17t17 -41t-17 -41t-43 -17t-43 17t-17 41zM228 554q0 24 17 41t43 17t43 -17t17 -41t-17 -41t-43 -17t-43 17t-17 41z" />
    <glyph glyph-name="uniFE96" unicode="&#x62a;" horiz-adv-x="871" arabic-form="final" 
d="M834 0q-43 0 -68.5 19.5t-39.5 45.5q-17 -32 -49 -48.5t-74 -16.5h-460q-39 0 -66 12t-43.5 32t-24 47t-7.5 56v169h114v-149q0 -28 8 -39.5t26 -11.5h449q23 0 30 14t7 38v230h114v-190q0 -40 18.5 -66t68.5 -26h37q15 0 21 -8t6 -19v-61q0 -8 -6.5 -18t-20.5 -10h-40z
M254 554q0 24 17 41t43 17t43 -17t17 -41t-17 -41t-43 -17t-43 17t-17 41zM410 554q0 24 17 41t43 17t43 -17t17 -41t-17 -41t-43 -17t-43 17t-17 41z" />
    <glyph glyph-name="uniFE97" unicode="&#x62a;" horiz-adv-x="323" arabic-form="initial" 
d="M-4 0q-14 0 -20 8t-6 18v59q0 11 6.5 21t19.5 10h137v282h114v-398h-251zM48 554q0 24 17 41t43 17t43 -17t17 -41t-17 -41t-43 -17t-43 17t-17 41zM204 554q0 24 17 41t43 17t43 -17t17 -41t-17 -41t-43 -17t-43 17t-17 41z" />
    <glyph glyph-name="uniFE98" unicode="&#x62a;" horiz-adv-x="364" arabic-form="medial" 
d="M-3 0q-17 0 -22 8t-5 18v59q0 11 6.5 21t20.5 10h96q22 0 29.5 14t7.5 38v230h114v-190q0 -40 19 -66t69 -26h35q17 0 22 -8t5 -19v-61q0 -8 -6.5 -18t-20.5 -10h-38q-44 0 -70.5 21t-40.5 46q-17 -29 -47.5 -48t-72.5 -19h-101zM63 554q0 24 17 41t43 17t43 -17t17 -41
t-17 -41t-43 -17t-43 17t-17 41zM219 554q0 24 17 41t43 17t43 -17t17 -41t-17 -41t-43 -17t-43 17t-17 41z" />
    <glyph glyph-name="uniFE9A" unicode="&#x62b;" horiz-adv-x="871" arabic-form="final" 
d="M834 0q-43 0 -68.5 19.5t-39.5 45.5q-17 -32 -49 -48.5t-74 -16.5h-460q-39 0 -66 12t-43.5 32t-24 47t-7.5 56v169h114v-149q0 -28 8 -39.5t26 -11.5h449q23 0 30 14t7 38v230h114v-190q0 -40 18.5 -66t68.5 -26h37q15 0 21 -8t6 -19v-61q0 -8 -6.5 -18t-20.5 -10h-40z
M330 683q0 24 17.5 40.5t43.5 16.5q25 0 43 -16.5t18 -40.5q0 -25 -18 -41.5t-43 -16.5q-26 0 -43.5 16.5t-17.5 41.5zM253 554q0 24 17 41t43 17t43 -17t17 -41t-17 -41t-43 -17t-43 17t-17 41zM409 554q0 24 17 41t43 17t43 -17t17 -41t-17 -41t-43 -17t-43 17t-17 41z
" />
    <glyph glyph-name="uniFE9B" unicode="&#x62b;" horiz-adv-x="323" arabic-form="initial" 
d="M-4 0q-14 0 -20 8t-6 18v59q0 11 6.5 21t19.5 10h137v282h114v-398h-251zM115 683q0 24 17.5 40.5t43.5 16.5q25 0 43 -16.5t18 -40.5q0 -25 -18 -41.5t-43 -16.5q-26 0 -43.5 16.5t-17.5 41.5zM38 554q0 24 17 41t43 17t43 -17t17 -41t-17 -41t-43 -17t-43 17t-17 41z
M194 554q0 24 17 41t43 17t43 -17t17 -41t-17 -41t-43 -17t-43 17t-17 41z" />
    <glyph glyph-name="uniFE9C" unicode="&#x62b;" horiz-adv-x="364" arabic-form="medial" 
d="M-3 0q-17 0 -22 8t-5 18v59q0 11 6.5 21t20.5 10h96q22 0 29.5 14t7.5 38v230h114v-190q0 -40 19 -66t69 -26h35q17 0 22 -8t5 -19v-61q0 -8 -6.5 -18t-20.5 -10h-38q-44 0 -70.5 21t-40.5 46q-17 -29 -47.5 -48t-72.5 -19h-101zM139 683q0 24 17.5 40.5t43.5 16.5
q25 0 43 -16.5t18 -40.5q0 -25 -18 -41.5t-43 -16.5q-26 0 -43.5 16.5t-17.5 41.5zM62 554q0 24 17 41t43 17t43 -17t17 -41t-17 -41t-43 -17t-43 17t-17 41zM218 554q0 24 17 41t43 17t43 -17t17 -41t-17 -41t-43 -17t-43 17t-17 41z" />
    <glyph glyph-name="uniFE9E" unicode="&#x62c;" horiz-adv-x="532" arabic-form="final" 
d="M351 116q-9 16 -16.5 40t-11.5 72q-5 51 -26.5 71.5t-56.5 20.5q-21 0 -53.5 -6t-60.5 -20l-28 108q12 4 30.5 9.5t41 11t46.5 9.5t45 4q46 0 77.5 -18t52.5 -45t32 -59.5t16 -61.5q4 -29 9 -54t14 -43t23.5 -28.5t37.5 -10.5h12q16 0 21.5 -8t5.5 -19v-61q0 -8 -6 -18
t-21 -10h-21q-31 0 -62.5 12.5t-52.5 31.5q-18 -28 -39.5 -36t-45.5 -8h-67q-32 0 -56 -9t-39.5 -24.5t-23.5 -35t-8 -40.5q0 -51 34.5 -82t103.5 -31q13 0 28.5 2t30.5 5t28 6.5t21 6.5l16 -104q-8 -4 -23.5 -8.5t-35.5 -8.5t-42.5 -6.5t-43.5 -2.5q-43 0 -85.5 12.5
t-76 39t-54.5 67.5t-21 99q0 54 18.5 96.5t52.5 72.5t82.5 45.5t107.5 15.5h90zM220 -116q0 24 17.5 40.5t43.5 16.5q25 0 42.5 -16.5t17.5 -40.5q0 -25 -17.5 -41.5t-42.5 -16.5q-26 0 -43.5 16.5t-17.5 41.5z" />
    <glyph glyph-name="uniFE9F" unicode="&#x62c;" horiz-adv-x="496" arabic-form="initial" 
d="M264 228q-5 51 -25 71.5t-58 20.5q-21 0 -52.5 -7t-60.5 -21l-29 110q12 5 31 11t40.5 11t45 8.5t46.5 3.5q43 0 74.5 -13.5t53 -38t33.5 -58.5t17 -74q2 -20 5 -39.5t10.5 -38.5t20 -35t32.5 -28v-111h-451q-15 0 -21 8t-6 18v59q0 11 6.5 21t20.5 10h312
q-9 11 -24.5 38.5t-20.5 73.5zM173 -126q0 24 17.5 40.5t43.5 16.5q25 0 42.5 -16.5t17.5 -40.5q0 -25 -17.5 -41.5t-42.5 -16.5q-26 0 -43.5 16.5t-17.5 41.5z" />
    <glyph glyph-name="uniFEA0" unicode="&#x62c;" horiz-adv-x="474" arabic-form="medial" 
d="M504 28q0 -8 -6.5 -18t-21.5 -10h-19q-32 0 -63.5 13t-51.5 31q-18 -28 -39.5 -36t-43.5 -8h-262q-15 0 -21 8t-6 18v59q0 11 6.5 21t20.5 10h295q-9 16 -16.5 41t-11.5 71q-5 51 -26.5 71.5t-56.5 20.5q-20 0 -51 -6.5t-62 -21.5l-28 109q12 4 31.5 10t41.5 11.5
t45.5 9.5t44.5 4q48 0 80.5 -17t53 -44t30.5 -59.5t13 -63.5q2 -20 6.5 -43.5t12.5 -44t21 -34.5t33 -14h23q16 0 22 -8t6 -19v-61zM139 -126q0 24 17.5 40.5t43.5 16.5q25 0 42.5 -16.5t17.5 -40.5q0 -25 -17.5 -41.5t-42.5 -16.5q-26 0 -43.5 16.5t-17.5 41.5z" />
    <glyph glyph-name="uniFEA2" unicode="&#x62d;" horiz-adv-x="532" arabic-form="final" 
d="M351 116q-9 16 -16.5 40t-11.5 72q-5 51 -26.5 71.5t-56.5 20.5q-21 0 -53.5 -6t-60.5 -20l-28 108q12 4 30.5 9.5t41 11t46.5 9.5t45 4q46 0 77.5 -18t52.5 -45t32 -59.5t16 -61.5q4 -29 9 -54t14 -43t23.5 -28.5t37.5 -10.5h12q16 0 21.5 -8t5.5 -19v-61q0 -8 -6 -18
t-21 -10h-21q-31 0 -62.5 12.5t-52.5 31.5q-18 -28 -39.5 -36t-45.5 -8h-67q-32 0 -56 -9t-39.5 -24.5t-23.5 -35t-8 -40.5q0 -51 34.5 -82t103.5 -31q13 0 28.5 2t30.5 5t28 6.5t21 6.5l16 -104q-8 -4 -23.5 -8.5t-35.5 -8.5t-42.5 -6.5t-43.5 -2.5q-43 0 -85.5 12.5
t-76 39t-54.5 67.5t-21 99q0 54 18.5 96.5t52.5 72.5t82.5 45.5t107.5 15.5h90z" />
    <glyph glyph-name="uniFEA3" unicode="&#x62d;" horiz-adv-x="496" arabic-form="initial" 
d="M264 228q-5 51 -25 71.5t-58 20.5q-21 0 -52.5 -7t-60.5 -21l-29 110q12 5 31 11t40.5 11t45 8.5t46.5 3.5q43 0 74.5 -13.5t53 -38t33.5 -58.5t17 -74q2 -20 5 -39.5t10.5 -38.5t20 -35t32.5 -28v-111h-451q-15 0 -21 8t-6 18v59q0 11 6.5 21t20.5 10h312
q-9 11 -24.5 38.5t-20.5 73.5z" />
    <glyph glyph-name="uniFEA4" unicode="&#x62d;" horiz-adv-x="474" arabic-form="medial" 
d="M504 28q0 -8 -6.5 -18t-21.5 -10h-19q-32 0 -63.5 13t-51.5 31q-18 -28 -39.5 -36t-43.5 -8h-262q-15 0 -21 8t-6 18v59q0 11 6.5 21t20.5 10h295q-9 16 -16.5 41t-11.5 71q-5 51 -26.5 71.5t-56.5 20.5q-20 0 -51 -6.5t-62 -21.5l-28 109q12 4 31.5 10t41.5 11.5
t45.5 9.5t44.5 4q48 0 80.5 -17t53 -44t30.5 -59.5t13 -63.5q2 -20 6.5 -43.5t12.5 -44t21 -34.5t33 -14h23q16 0 22 -8t6 -19v-61z" />
    <glyph glyph-name="uniFEA6" unicode="&#x62e;" horiz-adv-x="532" arabic-form="final" 
d="M351 116q-9 16 -16.5 40t-11.5 72q-5 51 -26.5 71.5t-56.5 20.5q-21 0 -53.5 -6t-60.5 -20l-28 108q12 4 30.5 9.5t41 11t46.5 9.5t45 4q46 0 77.5 -18t52.5 -45t32 -59.5t16 -61.5q4 -29 9 -54t14 -43t23.5 -28.5t37.5 -10.5h12q16 0 21.5 -8t5.5 -19v-61q0 -8 -6 -18
t-21 -10h-21q-31 0 -62.5 12.5t-52.5 31.5q-18 -28 -39.5 -36t-45.5 -8h-67q-32 0 -56 -9t-39.5 -24.5t-23.5 -35t-8 -40.5q0 -51 34.5 -82t103.5 -31q13 0 28.5 2t30.5 5t28 6.5t21 6.5l16 -104q-8 -4 -23.5 -8.5t-35.5 -8.5t-42.5 -6.5t-43.5 -2.5q-43 0 -85.5 12.5
t-76 39t-54.5 67.5t-21 99q0 54 18.5 96.5t52.5 72.5t82.5 45.5t107.5 15.5h90zM198 554q0 24 17.5 41t42.5 17q26 0 43.5 -17t17.5 -41t-17.5 -41t-43.5 -17q-25 0 -42.5 17t-17.5 41z" />
    <glyph glyph-name="uniFEA7" unicode="&#x62e;" horiz-adv-x="496" arabic-form="initial" 
d="M264 228q-5 51 -25 71.5t-58 20.5q-21 0 -52.5 -7t-60.5 -21l-29 110q12 5 31 11t40.5 11t45 8.5t46.5 3.5q43 0 74.5 -13.5t53 -38t33.5 -58.5t17 -74q2 -20 5 -39.5t10.5 -38.5t20 -35t32.5 -28v-111h-451q-15 0 -21 8t-6 18v59q0 11 6.5 21t20.5 10h312
q-9 11 -24.5 38.5t-20.5 73.5zM135 554q0 24 17.5 41t42.5 17q26 0 43.5 -17t17.5 -41t-17.5 -41t-43.5 -17q-25 0 -42.5 17t-17.5 41z" />
    <glyph glyph-name="uniFEA8" unicode="&#x62e;" horiz-adv-x="474" arabic-form="medial" 
d="M504 28q0 -8 -6.5 -18t-21.5 -10h-19q-32 0 -63.5 13t-51.5 31q-18 -28 -39.5 -36t-43.5 -8h-262q-15 0 -21 8t-6 18v59q0 11 6.5 21t20.5 10h295q-9 16 -16.5 41t-11.5 71q-5 51 -26.5 71.5t-56.5 20.5q-20 0 -51 -6.5t-62 -21.5l-28 109q12 4 31.5 10t41.5 11.5
t45.5 9.5t44.5 4q48 0 80.5 -17t53 -44t30.5 -59.5t13 -63.5q2 -20 6.5 -43.5t12.5 -44t21 -34.5t33 -14h23q16 0 22 -8t6 -19v-61zM130 554q0 24 17.5 41t42.5 17q26 0 43.5 -17t17.5 -41t-17.5 -41t-43.5 -17q-25 0 -42.5 17t-17.5 41z" />
    <glyph glyph-name="uniFEAA" unicode="&#x62f;" horiz-adv-x="540" arabic-form="final" 
d="M505 0q-42 0 -69 19.5t-42 45.5q-17 -31 -48.5 -48t-71.5 -17h-236v116h228q23 0 31 12t8 38q0 40 -3 70.5t-15 50t-35.5 29.5t-64.5 10h-95v110h118q58 0 98 -16.5t64 -45.5t34.5 -68.5t10.5 -85.5q0 -51 21 -77.5t69 -26.5h36q15 0 21 -8t6 -19v-61q0 -8 -6.5 -18
t-20.5 -10h-38z" />
    <glyph glyph-name="uniFEAC" unicode="&#x630;" horiz-adv-x="540" arabic-form="final" 
d="M505 0q-42 0 -69 19.5t-42 45.5q-17 -31 -48.5 -48t-71.5 -17h-236v116h228q23 0 31 12t8 38q0 40 -3 70.5t-15 50t-35.5 29.5t-64.5 10h-95v110h118q58 0 98 -16.5t64 -45.5t34.5 -68.5t10.5 -85.5q0 -51 21 -77.5t69 -26.5h36q15 0 21 -8t6 -19v-61q0 -8 -6.5 -18
t-20.5 -10h-38zM116 554q0 24 17.5 41t42.5 17q26 0 43.5 -17t17.5 -41t-17.5 -41t-43.5 -17q-25 0 -42.5 17t-17.5 41z" />
    <glyph glyph-name="uniFEAE" unicode="&#x631;" horiz-adv-x="385" arabic-form="final" 
d="M356 0q-29 0 -53 13t-39 30v-27q0 -45 -12 -84t-36 -68t-59 -45.5t-81 -16.5q-18 0 -34.5 1.5t-28.5 3.5q-8 1 -14.5 2t-12.5 3l12 114l28 -6q12 -2 25.5 -3.5t24.5 -1.5q44 0 59 28t15 82v373h114v-190q0 -40 18.5 -66t70.5 -26h35q17 0 22 -8t5 -19v-61q0 -8 -6 -18
t-21 -10h-32z" />
    <glyph glyph-name="uniFEB0" unicode="&#x632;" horiz-adv-x="385" arabic-form="final" 
d="M356 0q-29 0 -53 13t-39 30v-27q0 -45 -12 -84t-36 -68t-59 -45.5t-81 -16.5q-18 0 -34.5 1.5t-28.5 3.5q-8 1 -14.5 2t-12.5 3l12 114l28 -6q12 -2 25.5 -3.5t24.5 -1.5q44 0 59 28t15 82v373h114v-190q0 -40 18.5 -66t70.5 -26h35q17 0 22 -8t5 -19v-61q0 -8 -6 -18
t-21 -10h-32zM149 554q0 24 17.5 41t42.5 17q26 0 43.5 -17t17.5 -41t-17.5 -41t-43.5 -17q-25 0 -42.5 17t-17.5 41z" />
    <glyph glyph-name="uniFEB2" unicode="&#x633;" horiz-adv-x="1216" arabic-form="final" 
d="M1180 0q-34 0 -63 20t-46 46q-17 -32 -50 -49t-73 -17h-26q-42 0 -69 20t-41 45q-16 -30 -49 -47.5t-73 -17.5h-33q-56 0 -89 36q-4 -55 -26 -100.5t-58.5 -78t-87 -50.5t-112.5 -18q-82 0 -136.5 23.5t-87.5 61t-46.5 84t-13.5 91.5q0 48 16.5 97.5t47.5 91.5l96 -55
q-23 -34 -33 -67.5t-10 -66.5q0 -22 7.5 -47t26.5 -46.5t52.5 -36t84.5 -14.5q32 0 62.5 9t54 28.5t38 50t14.5 72.5v240h114v-97q0 -42 20 -67t68 -25h26q23 0 30 14t7 38v176h114v-136q0 -40 19 -66t70 -26h20q19 0 28 11.5t9 40.5v230h114v-188q0 -51 21.5 -72.5
t63.5 -21.5h38q17 0 22 -8t5 -19v-61q0 -8 -6 -18t-21 -10h-39z" />
    <glyph glyph-name="uniFEB3" unicode="&#x633;" horiz-adv-x="926" arabic-form="initial" 
d="M-3 0q-15 0 -21 8t-6 18v59q0 11 6.5 21t20.5 10h172q23 0 30 14t7 38v137h114v-97q0 -40 19 -66t69 -26h25q23 0 30 13t7 39v176h114v-136q0 -40 19 -66t69 -26h59v282h113v-398h-175q-42 0 -68 20.5t-40 45.5q-17 -33 -49 -49.5t-74 -16.5h-32q-45 0 -71 19.5t-40 44.5
q-17 -31 -49.5 -47.5t-77.5 -16.5h-171z" />
    <glyph glyph-name="uniFEB4" unicode="&#x633;" horiz-adv-x="973" arabic-form="medial" 
d="M-2 0q-16 0 -22 8t-6 18v59q0 11 7 21t21 10h175q23 0 31 12t8 37v140h112v-97q0 -38 19 -65t70 -27h18q23 0 30 14t7 38v176h115v-136q0 -40 19 -66t69 -26h24q24 0 31.5 14t7.5 38v230h113v-190q0 -40 18.5 -66t68.5 -26h41q16 0 22 -8t6 -19v-61q0 -8 -6.5 -18
t-20.5 -10h-42q-45 0 -71.5 20t-40.5 46q-17 -32 -51 -49t-76 -17h-27q-45 0 -70.5 20t-38.5 45q-19 -33 -52 -49t-70 -16h-26q-43 0 -69.5 20t-39.5 45q-19 -33 -53.5 -49t-76.5 -16h-174z" />
    <glyph glyph-name="uniFEB6" unicode="&#x634;" horiz-adv-x="1216" arabic-form="final" 
d="M1180 0q-34 0 -63 20t-46 46q-17 -32 -50 -49t-73 -17h-26q-42 0 -69 20t-41 45q-16 -30 -49 -47.5t-73 -17.5h-33q-56 0 -89 36q-4 -55 -26 -100.5t-58.5 -78t-87 -50.5t-112.5 -18q-82 0 -136.5 23.5t-87.5 61t-46.5 84t-13.5 91.5q0 48 16.5 97.5t47.5 91.5l96 -55
q-23 -34 -33 -67.5t-10 -66.5q0 -22 7.5 -47t26.5 -46.5t52.5 -36t84.5 -14.5q32 0 62.5 9t54 28.5t38 50t14.5 72.5v240h114v-97q0 -42 20 -67t68 -25h26q23 0 30 14t7 38v176h114v-136q0 -40 19 -66t70 -26h20q19 0 28 11.5t9 40.5v230h114v-188q0 -51 21.5 -72.5
t63.5 -21.5h38q17 0 22 -8t5 -19v-61q0 -8 -6 -18t-21 -10h-39zM706 683q0 24 17.5 40.5t43.5 16.5q25 0 43 -16.5t18 -40.5q0 -25 -18 -41.5t-43 -16.5q-26 0 -43.5 16.5t-17.5 41.5zM629 554q0 24 17 41t43 17t43 -17t17 -41t-17 -41t-43 -17t-43 17t-17 41zM785 554
q0 24 17 41t43 17t43 -17t17 -41t-17 -41t-43 -17t-43 17t-17 41z" />
    <glyph glyph-name="uniFEB7" unicode="&#x634;" horiz-adv-x="926" arabic-form="initial" 
d="M-3 0q-15 0 -21 8t-6 18v59q0 11 6.5 21t20.5 10h172q23 0 30 14t7 38v137h114v-97q0 -40 19 -66t69 -26h25q23 0 30 13t7 39v176h114v-136q0 -40 19 -66t69 -26h59v282h113v-398h-175q-42 0 -68 20.5t-40 45.5q-17 -33 -49 -49.5t-74 -16.5h-32q-45 0 -71 19.5t-40 44.5
q-17 -31 -49.5 -47.5t-77.5 -16.5h-171zM470 683q0 24 17.5 40.5t43.5 16.5q25 0 43 -16.5t18 -40.5q0 -25 -18 -41.5t-43 -16.5q-26 0 -43.5 16.5t-17.5 41.5zM393 554q0 24 17 41t43 17t43 -17t17 -41t-17 -41t-43 -17t-43 17t-17 41zM549 554q0 24 17 41t43 17t43 -17
t17 -41t-17 -41t-43 -17t-43 17t-17 41z" />
    <glyph glyph-name="uniFEB8" unicode="&#x634;" horiz-adv-x="973" arabic-form="medial" 
d="M-2 0q-16 0 -22 8t-6 18v59q0 11 7 21t21 10h175q23 0 31 12t8 37v140h112v-97q0 -38 19 -65t70 -27h18q23 0 30 14t7 38v176h115v-136q0 -40 19 -66t69 -26h24q24 0 31.5 14t7.5 38v230h113v-190q0 -40 18.5 -66t68.5 -26h41q16 0 22 -8t6 -19v-61q0 -8 -6.5 -18
t-20.5 -10h-42q-45 0 -71.5 20t-40.5 46q-17 -32 -51 -49t-76 -17h-27q-45 0 -70.5 20t-38.5 45q-19 -33 -52 -49t-70 -16h-26q-43 0 -69.5 20t-39.5 45q-19 -33 -53.5 -49t-76.5 -16h-174zM474 683q0 24 17.5 40.5t43.5 16.5q25 0 43 -16.5t18 -40.5q0 -25 -18 -41.5
t-43 -16.5q-26 0 -43.5 16.5t-17.5 41.5zM397 554q0 24 17 41t43 17t43 -17t17 -41t-17 -41t-43 -17t-43 17t-17 41zM553 554q0 24 17 41t43 17t43 -17t17 -41t-17 -41t-43 -17t-43 17t-17 41z" />
    <glyph glyph-name="uniFEBA" unicode="&#x635;" horiz-adv-x="1145" arabic-form="final" 
d="M563 0q-10 -47 -34 -86t-60 -66.5t-83 -43t-103 -15.5q-82 0 -136.5 23.5t-87 61t-46 84t-13.5 91.5q0 48 16 97.5t47 91.5l97 -55q-23 -34 -33.5 -67.5t-10.5 -66.5q0 -22 7.5 -47t27 -46.5t52.5 -36t84 -14.5q32 0 62.5 9t54.5 28.5t38.5 50t14.5 72.5v334h114v-84
q36 49 93.5 83t126.5 34q55 0 100 -19t76.5 -52.5t49 -79.5t17.5 -100q0 -35 22 -50t70 -15h23q14 0 20 -8t6 -19v-61q0 -8 -7.5 -18t-18.5 -10h-27q-42 0 -68 20.5t-40 45.5q-17 -33 -50.5 -49.5t-78.5 -16.5h-322zM885 116q22 0 28.5 13.5t6.5 43.5q0 70 -35 109t-104 39
q-39 0 -75.5 -16.5t-65 -45t-47 -65.5t-21.5 -78h313z" />
    <glyph glyph-name="uniFEBB" unicode="&#x635;" horiz-adv-x="770" arabic-form="initial" 
d="M585 173q0 42 -9 70.5t-25.5 45.5t-40 24.5t-51.5 7.5q-33 0 -67 -14.5t-63 -41t-49.5 -64.5t-26.5 -85h332v57zM-3 0q-15 0 -21 8t-6 18v59q0 11 6.5 21t20.5 10h139v283h115v-84q42 55 101 86t120 31q56 0 98.5 -19t71.5 -52.5t43.5 -79.5t14.5 -100v-181h-703z" />
    <glyph glyph-name="uniFEBC" unicode="&#x635;" horiz-adv-x="826" arabic-form="medial" 
d="M564 116q21 0 27 13.5t6 42.5q0 72 -35 110.5t-104 38.5q-39 0 -74.5 -16.5t-63 -45t-45.5 -65.5t-22 -78h311zM-4 0q-16 0 -21 8t-5 18v59q0 11 6 21t20 10h141v283h114v-84q36 49 93 83t127 34q55 0 99.5 -19t76 -52.5t48.5 -80t17 -100.5q0 -35 22.5 -49.5t68.5 -14.5
h26q17 0 22 -8t5 -19v-61q0 -8 -6 -18t-21 -10h-28q-43 0 -70 20t-41 45q-16 -33 -49 -49t-78 -16h-567z" />
    <glyph glyph-name="uniFEBE" unicode="&#x636;" horiz-adv-x="1145" arabic-form="final" 
d="M563 0q-10 -47 -34 -86t-60 -66.5t-83 -43t-103 -15.5q-82 0 -136.5 23.5t-87 61t-46 84t-13.5 91.5q0 48 16 97.5t47 91.5l97 -55q-23 -34 -33.5 -67.5t-10.5 -66.5q0 -22 7.5 -47t27 -46.5t52.5 -36t84 -14.5q32 0 62.5 9t54.5 28.5t38.5 50t14.5 72.5v334h114v-84
q36 49 93.5 83t126.5 34q55 0 100 -19t76.5 -52.5t49 -79.5t17.5 -100q0 -35 22 -50t70 -15h23q14 0 20 -8t6 -19v-61q0 -8 -7.5 -18t-18.5 -10h-27q-42 0 -68 20.5t-40 45.5q-17 -33 -50.5 -49.5t-78.5 -16.5h-322zM885 116q22 0 28.5 13.5t6.5 43.5q0 70 -35 109t-104 39
q-39 0 -75.5 -16.5t-65 -45t-47 -65.5t-21.5 -78h313zM729 554q0 24 17.5 41t42.5 17q26 0 43.5 -17t17.5 -41t-17.5 -41t-43.5 -17q-25 0 -42.5 17t-17.5 41z" />
    <glyph glyph-name="uniFEBF" unicode="&#x636;" horiz-adv-x="770" arabic-form="initial" 
d="M585 173q0 42 -9 70.5t-25.5 45.5t-40 24.5t-51.5 7.5q-33 0 -67 -14.5t-63 -41t-49.5 -64.5t-26.5 -85h332v57zM-3 0q-15 0 -21 8t-6 18v59q0 11 6.5 21t20.5 10h139v283h115v-84q42 55 101 86t120 31q56 0 98.5 -19t71.5 -52.5t43.5 -79.5t14.5 -100v-181h-703z
M398 554q0 24 17.5 41t42.5 17q26 0 43.5 -17t17.5 -41t-17.5 -41t-43.5 -17q-25 0 -42.5 17t-17.5 41z" />
    <glyph glyph-name="uniFEC0" unicode="&#x636;" horiz-adv-x="826" arabic-form="medial" 
d="M564 116q21 0 27 13.5t6 42.5q0 72 -35 110.5t-104 38.5q-39 0 -74.5 -16.5t-63 -45t-45.5 -65.5t-22 -78h311zM-4 0q-16 0 -21 8t-5 18v59q0 11 6 21t20 10h141v283h114v-84q36 49 93 83t127 34q55 0 99.5 -19t76 -52.5t48.5 -80t17 -100.5q0 -35 22.5 -49.5t68.5 -14.5
h26q17 0 22 -8t5 -19v-61q0 -8 -6 -18t-21 -10h-28q-43 0 -70 20t-41 45q-16 -33 -49 -49t-78 -16h-567zM422 554q0 24 17.5 41t42.5 17q26 0 43.5 -17t17.5 -41t-17.5 -41t-43.5 -17q-25 0 -42.5 17t-17.5 41z" />
    <glyph glyph-name="uniFEC2" unicode="&#x637;" horiz-adv-x="779" arabic-form="final" 
d="M506 116q21 0 27.5 13.5t6.5 43.5q0 70 -29 109t-96 39q-39 0 -75 -16.5t-64.5 -45t-47 -65.5t-21.5 -78h299zM743 0q-45 0 -71 20t-40 46q-16 -33 -49 -49.5t-78 -16.5h-505v116h93v600h113v-400q36 49 92.5 82.5t128.5 33.5q54 0 96.5 -19t71.5 -52.5t44 -79.5t15 -100
q0 -35 23 -50t69 -15h36q14 0 20.5 -8t6.5 -19v-61q0 -8 -7.5 -18t-19.5 -10h-39z" />
    <glyph glyph-name="uniFEC3" unicode="&#x637;" horiz-adv-x="769" arabic-form="initial" 
d="M584 173q0 42 -9 70.5t-25.5 45.5t-40 24.5t-51.5 7.5q-33 0 -67 -14.5t-63 -41t-49.5 -64.5t-26.5 -85h332v57zM-3 0q-15 0 -21 8t-6 18v59q0 11 6.5 21t20.5 10h138v600h115v-401q42 57 101 87t120 30q56 0 98.5 -19t71.5 -52.5t43.5 -79.5t14.5 -100v-181h-702z" />
    <glyph glyph-name="uniFEC4" unicode="&#x637;" horiz-adv-x="818" arabic-form="medial" 
d="M546 116q21 0 28 13.5t7 43.5q0 70 -30 109t-97 39q-39 0 -75 -16.5t-64 -45t-46 -65.5t-22 -78h299zM783 0q-45 0 -70 20t-39 46q-17 -31 -50.5 -48.5t-78.5 -17.5h-549q-16 0 -21 8t-5 18v59q0 11 6 21t20 10h137v600h112v-401q36 49 94 83t128 34q55 0 97.5 -19
t71 -52.5t43.5 -79.5t15 -100q0 -35 23 -50t68 -15h36q17 0 22 -8t5 -19v-61q0 -8 -6 -18t-21 -10h-38z" />
    <glyph glyph-name="uniFEC6" unicode="&#x638;" horiz-adv-x="779" arabic-form="final" 
d="M506 116q21 0 27.5 13.5t6.5 43.5q0 70 -29 109t-96 39q-39 0 -75 -16.5t-64.5 -45t-47 -65.5t-21.5 -78h299zM743 0q-45 0 -71 20t-40 46q-16 -33 -49 -49.5t-78 -16.5h-505v116h93v600h113v-400q36 49 92.5 82.5t128.5 33.5q54 0 96.5 -19t71.5 -52.5t44 -79.5t15 -100
q0 -35 23 -50t69 -15h36q14 0 20.5 -8t6.5 -19v-61q0 -8 -7.5 -18t-19.5 -10h-39zM367 554q0 24 17.5 41t42.5 17q26 0 43.5 -17t17.5 -41t-17.5 -41t-43.5 -17q-25 0 -42.5 17t-17.5 41z" />
    <glyph glyph-name="uniFEC7" unicode="&#x638;" horiz-adv-x="769" arabic-form="initial" 
d="M584 173q0 42 -9 70.5t-25.5 45.5t-40 24.5t-51.5 7.5q-33 0 -67 -14.5t-63 -41t-49.5 -64.5t-26.5 -85h332v57zM-3 0q-15 0 -21 8t-6 18v59q0 11 6.5 21t20.5 10h138v600h115v-401q42 57 101 87t120 30q56 0 98.5 -19t71.5 -52.5t43.5 -79.5t14.5 -100v-181h-702z
M411 554q0 24 17.5 41t42.5 17q26 0 43.5 -17t17.5 -41t-17.5 -41t-43.5 -17q-25 0 -42.5 17t-17.5 41z" />
    <glyph glyph-name="uniFEC8" unicode="&#x638;" horiz-adv-x="818" arabic-form="medial" 
d="M546 116q21 0 28 13.5t7 43.5q0 70 -30 109t-97 39q-39 0 -75 -16.5t-64 -45t-46 -65.5t-22 -78h299zM783 0q-45 0 -70 20t-39 46q-17 -31 -50.5 -48.5t-78.5 -17.5h-549q-16 0 -21 8t-5 18v59q0 11 6 21t20 10h137v600h112v-401q36 49 94 83t128 34q55 0 97.5 -19
t71 -52.5t43.5 -79.5t15 -100q0 -35 23 -50t68 -15h36q17 0 22 -8t5 -19v-61q0 -8 -6 -18t-21 -10h-38zM391 554q0 24 17.5 41t42.5 17q26 0 43.5 -17t17.5 -41t-17.5 -41t-43.5 -17q-25 0 -42.5 17t-17.5 41z" />
    <glyph glyph-name="uniFECA" unicode="&#x639;" horiz-adv-x="505" arabic-form="final" 
d="M0 -114q0 47 14 83t36.5 63.5t50 47.5t54.5 35q-17 16 -35 36t-34 41t-28 41.5t-18 38.5l-5 79q25 21 56 38t63 28t63.5 17t58.5 6q47 0 83.5 -10t62 -26.5t38.5 -37t13 -41.5q0 -17 -4.5 -39.5t-16.5 -49t-34 -56.5t-57 -62q10 -2 25.5 -2h40.5h81q14 0 20.5 -8t6.5 -19
v-61q0 -8 -6.5 -18t-20.5 -10h-82q-60 0 -105.5 14t-71.5 28q-25 -12 -48 -26t-41 -32t-28.5 -40.5t-10.5 -52.5q0 -51 34.5 -82t103.5 -31q12 0 27.5 2t30.5 5t28.5 6.5t21.5 6.5l16 -104q-8 -4 -23.5 -8.5t-35.5 -8.5t-42.5 -6.5t-43.5 -2.5q-43 0 -85.5 12.5t-76.5 39
t-55 67.5t-21 99zM273 330q-16 0 -34.5 -2.5t-36 -6.5t-33 -10t-26.5 -13q7 -14 19.5 -32t27.5 -37t32.5 -36.5t34.5 -29.5q20 12 39 30t33.5 37.5t23.5 38.5t9 33q0 8 -7.5 13.5t-20.5 8.5t-29 4.5t-32 1.5z" />
    <glyph glyph-name="uniFECB" unicode="&#x639;" horiz-adv-x="479" arabic-form="initial" 
d="M129 116q-26 23 -44 58t-18 80q0 36 12 70t38.5 61t67.5 43t98 16q23 0 50 -2.5t61 -7.5l-14 -114q-25 4 -45 6t-40 2q-54 0 -83 -25t-29 -67q0 -29 13.5 -51.5t35.5 -37.5t51 -23t60 -8h88v-116h-434q-16 0 -21.5 8t-5.5 18v59q0 11 6.5 21t20.5 10h132z" />
    <glyph glyph-name="uniFECC" unicode="&#x639;" horiz-adv-x="535" arabic-form="medial" 
d="M292 330q-33 0 -70 -8.5t-60 -22.5q4 -9 15 -26t27 -37t34.5 -39t37.5 -32q22 13 41.5 31t33.5 37t22 37t8 32q0 8 -8 13.5t-21 8.5t-28.5 4.5t-31.5 1.5zM-3 0q-15 0 -21 8t-6 18v59q0 11 6.5 21t20.5 10h102q22 0 39 2t29 5q-18 17 -36 38t-33 41.5t-26 39t-15 30.5
l-4 80q22 18 50 34t59.5 28t64.5 19t66 7q51 0 88 -10.5t61 -27.5t36 -37.5t12 -39.5q0 -42 -22 -94t-86 -112q21 -3 70 -3h85q16 0 22 -8t6 -19v-61q0 -8 -6.5 -18t-21.5 -10h-87q-67 0 -112 14t-69 28q-38 -22 -82.5 -32t-87.5 -10h-102z" />
    <glyph glyph-name="uniFECE" unicode="&#x63a;" horiz-adv-x="506" arabic-form="final" 
d="M-1 -114q0 47 14 83t36.5 63.5t50 47.5t54.5 35q-17 16 -35 36t-34 41t-28 41.5t-18 38.5l-5 79q25 21 56 38t63 28t63.5 17t58.5 6q47 0 83.5 -10t62 -26.5t38.5 -37t13 -41.5q0 -17 -4.5 -39.5t-16.5 -49t-34 -56.5t-57 -62q10 -2 25.5 -2h40.5h81q14 0 20.5 -8
t6.5 -19v-61q0 -8 -6.5 -18t-20.5 -10h-82q-60 0 -105.5 14t-71.5 28q-25 -12 -48 -26t-41 -32t-28.5 -40.5t-10.5 -52.5q0 -51 34.5 -82t103.5 -31q12 0 27.5 2t30.5 5t28.5 6.5t21.5 6.5l16 -104q-8 -4 -23.5 -8.5t-35.5 -8.5t-42.5 -6.5t-43.5 -2.5q-43 0 -85.5 12.5
t-76.5 39t-55 67.5t-21 99zM272 330q-16 0 -34.5 -2.5t-36 -6.5t-33 -10t-26.5 -13q7 -14 19.5 -32t27.5 -37t32.5 -36.5t34.5 -29.5q20 12 39 30t33.5 37.5t23.5 38.5t9 33q0 8 -7.5 13.5t-20.5 8.5t-29 4.5t-32 1.5zM202 554q0 24 17.5 41t42.5 17q26 0 43.5 -17t17.5 -41
t-17.5 -41t-43.5 -17q-25 0 -42.5 17t-17.5 41z" />
    <glyph glyph-name="uniFECF" unicode="&#x63a;" horiz-adv-x="479" arabic-form="initial" 
d="M129 116q-26 23 -44 58t-18 80q0 36 12 70t38.5 61t67.5 43t98 16q23 0 50 -2.5t61 -7.5l-14 -114q-25 4 -45 6t-40 2q-54 0 -83 -25t-29 -67q0 -29 13.5 -51.5t35.5 -37.5t51 -23t60 -8h88v-116h-434q-16 0 -21.5 8t-5.5 18v59q0 11 6.5 21t20.5 10h132zM200 554
q0 24 17.5 41t42.5 17q26 0 43.5 -17t17.5 -41t-17.5 -41t-43.5 -17q-25 0 -42.5 17t-17.5 41z" />
    <glyph glyph-name="uniFED0" unicode="&#x63a;" horiz-adv-x="535" arabic-form="medial" 
d="M292 330q-33 0 -70 -8.5t-60 -22.5q4 -9 15 -26t27 -37t34.5 -39t37.5 -32q22 13 41.5 31t33.5 37t22 37t8 32q0 8 -8 13.5t-21 8.5t-28.5 4.5t-31.5 1.5zM-3 0q-15 0 -21 8t-6 18v59q0 11 6.5 21t20.5 10h102q22 0 39 2t29 5q-18 17 -36 38t-33 41.5t-26 39t-15 30.5
l-4 80q22 18 50 34t59.5 28t64.5 19t66 7q51 0 88 -10.5t61 -27.5t36 -37.5t12 -39.5q0 -42 -22 -94t-86 -112q21 -3 70 -3h85q16 0 22 -8t6 -19v-61q0 -8 -6.5 -18t-21.5 -10h-87q-67 0 -112 14t-69 28q-38 -22 -82.5 -32t-87.5 -10h-102zM209 554q0 24 17.5 41t42.5 17
q26 0 43.5 -17t17.5 -41t-17.5 -41t-43.5 -17q-25 0 -42.5 17t-17.5 41z" />
    <glyph glyph-name="uniFED2" unicode="&#x641;" horiz-adv-x="950" arabic-form="final" 
d="M856 116h98q14 0 20 -8t6 -19v-61q0 -8 -6.5 -18t-19.5 -10h-809q-30 0 -56.5 8.5t-46 27t-31 47t-11.5 69.5v173h115v-153q0 -35 10.5 -45.5t26.5 -10.5h323q-8 11 -17 36.5t-9 65.5q0 41 16 80t45 69t69.5 48.5t90.5 18.5q43 0 77.5 -14t58.5 -39.5t37 -61.5t13 -80
v-123zM741 116v128q0 14 -4.5 28t-14.5 25.5t-25.5 18.5t-36.5 7q-19 0 -36.5 -7.5t-31 -21t-21.5 -32.5t-8 -43q0 -36 14 -56.5t31 -31.5q19 -12 46 -15h87zM598 554q0 24 17.5 41t42.5 17q26 0 43.5 -17t17.5 -41t-17.5 -41t-43.5 -17q-25 0 -42.5 17t-17.5 41z" />
    <glyph glyph-name="uniFED3" unicode="&#x641;" horiz-adv-x="579" arabic-form="initial" 
d="M509 0h-512q-15 0 -21 8t-6 18v59q0 11 6.5 21t20.5 10h131q-8 11 -17 36.5t-9 65.5q0 41 16 80t45 69t70 48.5t91 18.5q43 0 77 -14t58 -39.5t37 -61.5t13 -80v-239zM394 116v128q0 14 -4.5 28t-14.5 25.5t-25.5 18.5t-36.5 7q-19 0 -36.5 -7.5t-31 -21t-22 -32.5
t-8.5 -43q0 -36 14.5 -56.5t31.5 -31.5q19 -12 46 -15h87zM262 554q0 24 17.5 41t42.5 17q26 0 43.5 -17t17.5 -41t-17.5 -41t-43.5 -17q-25 0 -42.5 17t-17.5 41z" />
    <glyph glyph-name="uniFED4" unicode="&#x641;" horiz-adv-x="599" arabic-form="medial" 
d="M505 116h97q16 0 21.5 -8t5.5 -19v-61q0 -8 -6.5 -18t-20.5 -10h-605q-16 0 -21.5 8t-5.5 18v59q0 11 6.5 21t20.5 10h127q-7 11 -16.5 36.5t-9.5 65.5q0 41 16 80t45 69t70.5 48.5t91.5 18.5q42 0 76 -14t58 -39.5t37 -61.5t13 -80v-123zM390 116v128q0 14 -4.5 28
t-14.5 25.5t-25 18.5t-37 7q-19 0 -36.5 -7.5t-31 -21t-21.5 -32.5t-8 -43q0 -36 14 -56.5t31 -31.5q19 -12 46 -15h87zM250 554q0 24 17.5 41t42.5 17q26 0 43.5 -17t17.5 -41t-17.5 -41t-43.5 -17q-25 0 -42.5 17t-17.5 41z" />
    <glyph glyph-name="uniFED6" unicode="&#x642;" horiz-adv-x="773" arabic-form="final" 
d="M488 0q-71 0 -119 18t-77 48.5t-42 70t-13 81.5q0 44 17.5 83.5t47.5 69t70.5 46.5t87.5 17q43 0 77.5 -14.5t58.5 -40.5t36.5 -61.5t12.5 -78.5v-123h126q14 0 20 -8t6 -19v-61q0 -8 -6.5 -18t-19.5 -10h-126q-3 -55 -23.5 -106.5t-60.5 -92t-99 -65t-140 -24.5
q-87 0 -147.5 23t-99 59.5t-56 81.5t-17.5 89q0 45 10 83.5t21.5 67t21.5 44.5t10 15l93 -50q-11 -18 -21 -41q-8 -19 -14.5 -42t-6.5 -49q0 -34 12 -64t37.5 -52.5t66 -35.5t97.5 -13q55 0 93 15t62 39t35.5 55t13.5 63h-45zM530 116v128q0 32 -21.5 55.5t-60.5 23.5
q-18 0 -35 -7t-31 -20.5t-22.5 -32.5t-8.5 -44q0 -27 10.5 -46.5t27.5 -32t40 -18.5t49 -6h52zM321 554q0 24 17 41t43 17t43 -17t17 -41t-17 -41t-43 -17t-43 17t-17 41zM477 554q0 24 17 41t43 17t43 -17t17 -41t-17 -41t-43 -17t-43 17t-17 41z" />
    <glyph glyph-name="uniFED7" unicode="&#x642;" horiz-adv-x="579" arabic-form="initial" 
d="M509 0h-512q-15 0 -21 8t-6 18v59q0 11 6.5 21t20.5 10h131q-8 11 -17 36.5t-9 65.5q0 41 16 80t45 69t70 48.5t91 18.5q43 0 77 -14t58 -39.5t37 -61.5t13 -80v-239zM394 116v128q0 14 -4.5 28t-14.5 25.5t-25.5 18.5t-36.5 7q-19 0 -36.5 -7.5t-31 -21t-22 -32.5
t-8.5 -43q0 -36 14.5 -56.5t31.5 -31.5q19 -12 46 -15h87zM163 554q0 24 17 41t43 17t43 -17t17 -41t-17 -41t-43 -17t-43 17t-17 41zM319 554q0 24 17 41t43 17t43 -17t17 -41t-17 -41t-43 -17t-43 17t-17 41z" />
    <glyph glyph-name="uniFED8" unicode="&#x642;" horiz-adv-x="599" arabic-form="medial" 
d="M505 116h97q16 0 21.5 -8t5.5 -19v-61q0 -8 -6.5 -18t-20.5 -10h-605q-16 0 -21.5 8t-5.5 18v59q0 11 6.5 21t20.5 10h127q-7 11 -16.5 36.5t-9.5 65.5q0 41 16 80t45 69t70.5 48.5t91.5 18.5q42 0 76 -14t58 -39.5t37 -61.5t13 -80v-123zM390 116v128q0 14 -4.5 28
t-14.5 25.5t-25 18.5t-37 7q-19 0 -36.5 -7.5t-31 -21t-21.5 -32.5t-8 -43q0 -36 14 -56.5t31 -31.5q19 -12 46 -15h87zM175 554q0 24 17 41t43 17t43 -17t17 -41t-17 -41t-43 -17t-43 17t-17 41zM331 554q0 24 17 41t43 17t43 -17t17 -41t-17 -41t-43 -17t-43 17t-17 41z
" />
    <glyph glyph-name="uniFEDA" unicode="&#x643;" horiz-adv-x="869" arabic-form="final" 
d="M832 0q-44 0 -69.5 21t-38.5 46q-19 -32 -53 -49.5t-70 -17.5h-461q-39 0 -65.5 12t-43 32t-24 47t-7.5 56v169h114v-149q0 -17 3 -27.5t7.5 -15.5t10.5 -6.5t13 -1.5h449q23 0 30 13t7 39v548h114v-508q0 -40 18.5 -66t67.5 -26h38q15 0 21 -8t6 -19v-61q0 -8 -6.5 -18
t-20.5 -10h-40zM470 478q-9 2 -19.5 4t-21.5 2q-16 0 -27 -9t-11 -29q0 -16 15 -30t47 -14h34v-59h-187v59h49q-8 11 -16 26t-8 33q0 32 24.5 56.5t75.5 24.5q27 0 54 -8z" />
    <glyph glyph-name="uniFEDB" unicode="&#x643;" horiz-adv-x="486" arabic-form="initial" 
d="M-3 0q-15 0 -21 8t-6 18v59q0 11 6.5 21t20.5 10h308v95q0 36 -9.5 56.5t-25.5 31t-37.5 13t-45.5 2.5h-121v101l194 308l94 -63l-153 -235h10q40 0 78 -9t66.5 -32t46 -63t17.5 -101v-220h-422z" />
    <glyph glyph-name="uniFEDC" unicode="&#x643;" horiz-adv-x="539" arabic-form="medial" 
d="M-3 0q-15 0 -21 8t-6 18v59q0 11 6.5 21t20.5 10h267q24 0 31.5 13t7.5 37q0 43 -3 71.5t-15 45.5t-35 24t-63 7h-126v101l194 308l94 -63l-153 -235h13q46 0 84 -10.5t65.5 -34.5t42.5 -63t15 -97q1 -57 23 -80.5t67 -23.5h37q14 0 20 -8t6 -19v-61q0 -8 -6.5 -18
t-19.5 -10h-40q-44 0 -69.5 20t-39.5 45q-17 -30 -50 -47.5t-72 -17.5h-275z" />
    <glyph glyph-name="uniFEDE" unicode="&#x644;" horiz-adv-x="691" arabic-form="final" 
d="M721 28q0 -8 -6.5 -18t-20.5 -10h-32q-32 0 -55 10t-38 25q-6 -56 -29 -101t-60 -77.5t-87 -50t-110 -17.5q-82 0 -136.5 23.5t-87 61t-46 84t-13.5 91.5q0 48 16.5 97.5t47.5 91.5l96 -55q-23 -34 -33 -67.5t-10 -66.5q0 -22 7.5 -47t26.5 -46.5t52 -36t84 -14.5
q33 0 63.5 9t54 28.5t38 50t14.5 72.5v651h113v-508q0 -51 23 -71.5t66 -20.5h35q15 0 20.5 -8t6.5 -19v-61z" />
    <glyph glyph-name="uniFEDF" unicode="&#x644;" horiz-adv-x="317" arabic-form="initial" 
d="M-4 0q-15 0 -20.5 8t-5.5 18v59q0 11 6 21t20 10h118v600h113v-716h-231z" />
    <glyph glyph-name="uniFEE0" unicode="&#x644;" horiz-adv-x="365" arabic-form="medial" 
d="M-3 0q-17 0 -22 8t-5 18v59q0 11 6.5 21t20.5 10h96q22 0 29.5 14t7.5 38v548h115v-508q0 -40 18.5 -66t69.5 -26h35q17 0 22 -8t5 -19v-61q0 -8 -6.5 -18t-20.5 -10h-39q-43 0 -69.5 20.5t-40.5 45.5q-17 -33 -48 -49.5t-73 -16.5h-101z" />
    <glyph glyph-name="uniFEE2" unicode="&#x645;" horiz-adv-x="749" arabic-form="final" 
d="M420 332q-21 0 -39 -6.5t-31.5 -21.5t-21.5 -39t-8 -59v-88h94q58 0 78.5 26t20.5 77q0 52 -24 81.5t-69 29.5zM779 28q0 -8 -6.5 -18t-20.5 -10h-38q-42 0 -75.5 23.5t-51.5 55.5q-30 -42 -78.5 -60.5t-111.5 -18.5h-220q-32 0 -47.5 -18.5t-15.5 -69.5v-246h-114v274
q0 88 47 133t122 45h36v98q0 43 14.5 84.5t41.5 73.5t66.5 51.5t89.5 19.5q49 0 88 -16.5t66.5 -45.5t42 -70t14.5 -89v-28q0 -8 2 -21.5t11 -26.5t26.5 -22.5t47.5 -9.5h37q15 0 21 -8t6 -19v-61z" />
    <glyph glyph-name="uniFEE3" unicode="&#x645;" horiz-adv-x="561" arabic-form="initial" 
d="M303 110q47 0 69.5 29t22.5 70q0 26 -8 47t-20.5 36t-29 23t-34.5 8q-19 0 -36 -8t-29.5 -23t-20 -36t-7.5 -47q0 -40 21.5 -69.5t71.5 -29.5zM-3 0q-15 0 -21 8t-6 18v59q0 11 6.5 21t20.5 10h39q62 0 62 94q0 48 15.5 89t43.5 70.5t65.5 46t82.5 16.5q50 0 87.5 -17
t62 -47t36.5 -72t12 -92q0 -39 -10.5 -76t-34.5 -65.5t-61.5 -45.5t-91.5 -17q-22 0 -44 2.5t-43.5 10t-41 21t-35.5 34.5q-15 -35 -41.5 -51.5t-56.5 -16.5h-46z" />
    <glyph glyph-name="uniFEE4" unicode="&#x645;" horiz-adv-x="624" arabic-form="medial" 
d="M301 110q48 0 70.5 28.5t22.5 70.5q0 26 -8 47t-20.5 36t-29.5 23t-35 8q-19 0 -36 -8t-29.5 -23t-20 -36t-7.5 -47q0 -42 22.5 -70.5t70.5 -28.5zM-3 0q-15 0 -21 8t-6 18v59q0 11 6.5 21t20.5 10h39q11 0 22 3.5t19.5 14t13.5 29t5 47.5q0 48 15.5 88.5t43 70
t65.5 46.5t82 17q97 0 148.5 -62t51.5 -174q0 -9 2.5 -23t11.5 -26.5t26.5 -21.5t47.5 -9h36q15 0 21.5 -8t6.5 -19v-61q0 -8 -7 -18t-21 -10h-39q-42 0 -73.5 21t-46.5 53q-18 -28 -38 -44t-41 -23.5t-44 -9.5t-47 -2q-57 0 -94.5 20t-61.5 52q-14 -29 -40 -48t-59 -19h-45
z" />
    <glyph glyph-name="uniFEE6" unicode="&#x646;" horiz-adv-x="679" arabic-form="final" 
d="M644 0q-26 0 -44 8t-30 19q-8 -63 -35 -108t-66.5 -74t-88 -42.5t-98.5 -13.5q-82 0 -136 23.5t-86.5 61t-46 84t-13.5 91.5q0 48 17 99t47 90l96 -55q-23 -34 -33 -68t-10 -66q0 -24 8 -49.5t27.5 -46.5t52 -34.5t82.5 -13.5q42 0 74 13t53.5 34t32 49t10.5 58
q0 42 -16.5 94t-43.5 95l107 61q20 -39 33.5 -75t20.5 -62q9 -32 26.5 -44t59.5 -12h37q16 0 22 -8t6 -19v-61q0 -8 -7 -18t-21 -10h-37zM242 454q0 24 17.5 41t42.5 17q26 0 43.5 -17t17.5 -41t-17.5 -41t-43.5 -17q-25 0 -42.5 17t-17.5 41z" />
    <glyph glyph-name="uniFEE7" unicode="&#x646;" horiz-adv-x="323" arabic-form="initial" 
d="M-4 0q-14 0 -20 8t-6 18v59q0 11 6.5 21t19.5 10h137v282h114v-398h-251zM132 554q0 24 17.5 41t42.5 17q26 0 43.5 -17t17.5 -41t-17.5 -41t-43.5 -17q-25 0 -42.5 17t-17.5 41z" />
    <glyph glyph-name="uniFEE8" unicode="&#x646;" horiz-adv-x="364" arabic-form="medial" 
d="M-3 0q-17 0 -22 8t-5 18v59q0 11 6.5 21t20.5 10h96q22 0 29.5 14t7.5 38v230h114v-190q0 -40 19 -66t69 -26h35q17 0 22 -8t5 -19v-61q0 -8 -6.5 -18t-20.5 -10h-38q-44 0 -70.5 21t-40.5 46q-17 -29 -47.5 -48t-72.5 -19h-101zM127 554q0 24 17.5 41t42.5 17
q26 0 43.5 -17t17.5 -41t-17.5 -41t-43.5 -17q-25 0 -42.5 17t-17.5 41z" />
    <glyph glyph-name="uniFEE9" unicode="&#x647;" horiz-adv-x="472" arabic-form="isolated" 
d="M402 0h-181q-61 0 -103.5 17.5t-69.5 46t-39 64.5t-12 73q0 47 15.5 89.5t44 74.5t67.5 50.5t86 18.5q43 0 78.5 -14.5t61 -41t39 -63t13.5 -80.5v-235zM288 116v89q0 57 -22 87.5t-64 30.5q-17 0 -33.5 -7.5t-29.5 -21t-21 -32.5t-8 -43q0 -28 9 -47.5t24 -32t34.5 -18
t40.5 -5.5h70z" />
    <glyph glyph-name="uniFEEA" unicode="&#x647;" horiz-adv-x="473" arabic-form="final" 
d="M291 116v89q0 57 -21.5 87.5t-63.5 30.5q-18 0 -34.5 -7.5t-29.5 -21t-21 -32.5t-8 -43q0 -28 9 -47.5t24 -32t34.5 -18t40.5 -5.5h70zM224 0q-61 0 -103.5 17.5t-69.5 46t-39 64.5t-12 73q0 47 16 89.5t44 74.5t67 50.5t86 18.5q43 0 78.5 -14.5t61 -41t39 -63
t13.5 -80.5v-119h71q14 0 20.5 -8t6.5 -19v-61q0 -8 -6.5 -18t-20.5 -10h-252z" />
    <glyph glyph-name="uniFEEB" unicode="&#x647;" horiz-adv-x="739" arabic-form="initial" 
d="M336 319q-55 -10 -87.5 -60t-32.5 -131v-12h120v203zM438 116h117v28q0 80 -33 122t-84 53v-203zM-4 0q-16 0 -21 8t-5 18v59q0 11 6.5 21t19.5 10h112q0 63 17 116.5t47 94t72 66.5t92 34v60h102v-60q118 -16 174.5 -94t56.5 -198v-135h-673z" />
    <glyph glyph-name="uniFEEC" unicode="&#x647;" horiz-adv-x="553" arabic-form="medial" 
d="M201 116h90q17 0 30 10t21.5 26.5t13 39t4.5 47.5q0 38 -19.5 62t-51.5 24q-14 0 -29 -6.5t-28.5 -25t-22 -51.5t-8.5 -85v-41zM205 0v-83q0 -36 9.5 -61t24 -40t32.5 -21.5t35 -6.5q34 0 55 23t21 53q0 15 -7 33t-18.5 36.5t-27 36t-32.5 30.5h-92zM-3 0q-15 0 -21 8
t-6 18v59q0 11 6.5 21t20.5 10h101v56q0 64 16.5 113t44 82.5t64 50.5t77.5 17q75 0 120 -47t45 -132q0 -43 -12.5 -80t-28.5 -60h131q16 0 22 -8t6 -19v-61q0 -8 -6.5 -18t-21.5 -10h-118q21 -29 35 -63.5t14 -63.5q0 -41 -13 -76t-37 -61t-57.5 -41t-74.5 -15
q-55 0 -93.5 19.5t-63 51.5t-35.5 72.5t-11 83.5v93h-104z" />
    <glyph glyph-name="uniFEEE" unicode="&#x648;" horiz-adv-x="557" arabic-form="final" 
d="M348 116v89q0 57 -22.5 87.5t-62.5 30.5q-18 0 -34.5 -7.5t-29.5 -21t-21 -32.5t-8 -43q0 -28 9 -47.5t24 -32t34.5 -18t40.5 -5.5h70zM461 0q-3 -58 -23 -99.5t-54 -67.5t-80 -38.5t-101 -12.5q-23 0 -48 1.5t-55 6.5l8 112q29 -4 55 -6t45 -2q28 0 53 4t44.5 15.5
t31 32t12.5 54.5h-67q-62 0 -104.5 17.5t-69 46t-38.5 64.5t-12 73q0 47 15.5 89.5t43.5 74.5t66.5 50.5t85.5 18.5q45 0 80.5 -14.5t60.5 -41t38 -63t13 -80.5v-119h98q16 0 22 -8t6 -19v-61q0 -8 -6.5 -18t-21.5 -10h-98z" />
    <glyph glyph-name="uniFEF0" unicode="&#x649;" horiz-adv-x="944" arabic-form="final" 
d="M769 0v182q0 34 -6.5 54.5t-20 31.5t-34 14.5t-47.5 3.5h-9v-211q0 -60 -20 -112.5t-62 -91.5t-107 -62t-154 -23q-81 0 -139 24t-95 61.5t-54.5 84.5t-17.5 94q0 54 18.5 100t47.5 88l94 -55q-23 -34 -33.5 -66.5t-10.5 -59.5q0 -33 13 -60.5t38.5 -47.5t63 -31.5
t85.5 -11.5t88 9.5t69.5 28t45.5 46t16 62.5v346h139q106 0 156 -51t50 -154v-77h64q14 0 20.5 -8t6.5 -19v-61q0 -8 -6.5 -18t-20.5 -10h-178z" />
    <glyph glyph-name="uniFEF2" unicode="&#x64a;" horiz-adv-x="944" arabic-form="final" 
d="M769 0v182q0 34 -6.5 54.5t-20 31.5t-34 14.5t-47.5 3.5h-9v-211q0 -60 -20 -112.5t-62 -91.5t-107 -62t-154 -23q-81 0 -139 24t-95 61.5t-54.5 84.5t-17.5 94q0 54 18.5 100t47.5 88l94 -55q-23 -34 -33.5 -66.5t-10.5 -59.5q0 -33 13 -60.5t38.5 -47.5t63 -31.5
t85.5 -11.5t88 9.5t69.5 28t45.5 46t16 62.5v346h139q106 0 156 -51t50 -154v-77h64q14 0 20.5 -8t6.5 -19v-61q0 -8 -6.5 -18t-20.5 -10h-178zM180 -316q0 24 17 40.5t43 16.5t43 -16.5t17 -40.5q0 -25 -17 -41.5t-43 -16.5t-43 16.5t-17 41.5zM335 -316q0 24 17 40.5
t43 16.5t43 -16.5t17 -40.5q0 -25 -17 -41.5t-43 -16.5t-43 16.5t-17 41.5z" />
    <glyph glyph-name="uniFEF3" unicode="&#x64a;" horiz-adv-x="323" arabic-form="initial" 
d="M-4 0q-14 0 -20 8t-6 18v59q0 11 6.5 21t19.5 10h137v282h114v-398h-251zM4 -126q0 24 17 40.5t43 16.5t43 -16.5t17 -40.5q0 -25 -17 -41.5t-43 -16.5t-43 16.5t-17 41.5zM159 -126q0 24 17 40.5t43 16.5t43 -16.5t17 -40.5q0 -25 -17 -41.5t-43 -16.5t-43 16.5
t-17 41.5z" />
    <glyph glyph-name="uniFEF4" unicode="&#x64a;" horiz-adv-x="364" arabic-form="medial" 
d="M-3 0q-17 0 -22 8t-5 18v59q0 11 6.5 21t20.5 10h96q22 0 29.5 14t7.5 38v230h114v-190q0 -40 19 -66t69 -26h35q17 0 22 -8t5 -19v-61q0 -8 -6.5 -18t-20.5 -10h-38q-44 0 -70.5 21t-40.5 46q-17 -29 -47.5 -48t-72.5 -19h-101zM49 -126q0 24 17 40.5t43 16.5t43 -16.5
t17 -40.5q0 -25 -17 -41.5t-43 -16.5t-43 16.5t-17 41.5zM204 -126q0 24 17 40.5t43 16.5t43 -16.5t17 -40.5q0 -25 -17 -41.5t-43 -16.5t-43 16.5t-17 41.5z" />
    <glyph glyph-name=".notdef" horiz-adv-x="505" 
d="M219 115v66h55v-66h-55zM222 231l-2 16q0 28 3.5 48t8.5 32q13 25 47 59q15 15 25 26.5t14 19.5q9 18 9 35q0 35 -22 60q-21 24 -53 24q-30 0 -52.5 -21t-28.5 -72l-48 7q6 70 43 103t89 33q27 0 48.5 -9.5t38.5 -26.5q36 -36 36 -94q0 -31 -13 -58q-10 -22 -49 -60
q-35 -32 -43 -51q-6 -18 -6 -71h-45zM456 49v608h-407v-608h407zM505 708v-708h-505v708h505z" />
    <glyph glyph-name=".null" horiz-adv-x="499" 
 />
    <glyph glyph-name=".null" horiz-adv-x="499" 
 />
    <glyph glyph-name="nonmarkingreturn" unicode="&#xd;" horiz-adv-x="194" 
 />
    <glyph glyph-name="space" unicode=" " horiz-adv-x="250" 
 />
    <glyph glyph-name="space" unicode="&#xa0;" horiz-adv-x="250" 
 />
    <glyph glyph-name="exclam" unicode="!" horiz-adv-x="296" 
d="M208 222h-120v486h120v-486zM68 70q0 32 23.5 55t56.5 23q32 0 56 -22t24 -54t-23.5 -55t-56.5 -23q-32 0 -56 22t-24 54z" />
    <glyph glyph-name="quotedbl" unicode="&#x22;" horiz-adv-x="519" 
d="M120 708h102v-264h-102v264zM297 708h102v-264h-102v264z" />
    <glyph glyph-name="numbersign" unicode="#" horiz-adv-x="592" 
d="M137 209h-90v84h101l18 122h-90v84h101l30 209h88l-30 -209h103l30 209h87l-30 -209h90v-84h-102l-17 -122h90v-84h-100l-31 -209h-87l30 209h-104l-30 -209h-87zM253 415l-17 -122h103l17 122h-103z" />
    <glyph glyph-name="dollar" unicode="$" horiz-adv-x="592" 
d="M318 720h9q51 0 104.5 -17.5t91.5 -51.5l-83 -93q-23 25 -55 39.5t-67 14.5v-200l4 -1q42 -11 82.5 -25t72 -36.5t51 -56.5t19.5 -85q0 -50 -18 -88.5t-49 -66t-72.5 -43.5t-89.5 -21v-72h-54v71q-66 -1 -126.5 20t-106.5 69l91 93q24 -34 62 -52t80 -22v211l-5 1
q-42 12 -80 27t-67.5 38t-46.5 56.5t-17 83.5q0 45 18 81t48 62.5t69 42.5t81 20v67h54v-66zM264 610q-35 -6 -62.5 -29.5t-27.5 -61.5q0 -23 7.5 -37t19.5 -24t28.5 -16.5t34.5 -14.5v183zM318 96q21 4 39.5 12t32.5 21t22.5 30.5t8.5 39.5t-9.5 37t-24.5 25t-33 17t-36 13
v-195z" />
    <glyph glyph-name="percent" unicode="%" horiz-adv-x="907" 
d="M505 174q0 39 14.5 72.5t40 59t59 40t72.5 14.5t72.5 -14.5t59 -40t40 -59t14.5 -72.5t-14.5 -72.5t-40 -59t-59 -40t-72.5 -14.5t-72.5 14.5t-59 40t-40 59t-14.5 72.5zM781 174q0 38 -26 64t-64 26t-64 -26t-26 -64t26 -64t64 -26t64 26t26 64zM30 534q0 39 14.5 72.5
t40 59t59 40t72.5 14.5t72.5 -14.5t59 -40t40 -59t14.5 -72.5t-14.5 -72.5t-40 -59t-59 -40t-72.5 -14.5t-72.5 14.5t-59 40t-40 59t-14.5 72.5zM306 534q0 38 -26 64t-64 26t-64 -26t-26 -64t26 -64t64 -26t64 26t26 64zM621 740l83 -38l-416 -734l-83 38z" />
    <glyph glyph-name="ampersand" unicode="&#x26;" horiz-adv-x="741" 
d="M574 167l153 -167h-155l-75 81q-43 -51 -91.5 -75t-117.5 -24q-47 0 -90.5 13.5t-76.5 40t-53 65t-20 89.5q0 35 12 66t32.5 56.5t48.5 45t60 31.5q-17 19 -31.5 37t-25.5 37t-17.5 41t-6.5 48q0 43 16.5 76t44.5 54.5t64.5 32.5t77.5 11q40 0 76 -10t63.5 -30.5
t44 -52.5t16.5 -75q0 -33 -12 -60.5t-32 -50.5t-45.5 -41t-51.5 -31l114 -123l79 120h141zM325 618q-35 0 -60 -19.5t-25 -51.5q0 -14 6 -27.5t16 -27t21.5 -26t23.5 -22.5q15 8 32 18.5t31.5 24t23.5 29.5t9 36q0 29 -23 47.5t-55 18.5zM277 318q-18 -11 -35 -22.5
t-31 -25.5t-22.5 -32t-8.5 -41t9 -43t24.5 -34t35.5 -22t43 -8q41 0 72 22t58 48z" />
    <glyph glyph-name="quotesingle" unicode="'" horiz-adv-x="296" 
d="M97 708h102v-264h-102v264z" />
    <glyph glyph-name="parenleft" unicode="(" horiz-adv-x="296" 
d="M279 680l-1 -4q-60 -85 -94 -185t-34 -203q0 -105 34 -204.5t94 -184.5l-84 -55q-69 96 -107.5 208t-38.5 236q0 123 38.5 235.5t107.5 208.5z" />
    <glyph glyph-name="parenright" unicode=")" horiz-adv-x="296" 
d="M17 -104l1 4q60 85 94 185t34 203q0 105 -34 204t-94 184l84 56q69 -96 107.5 -208t38.5 -236q0 -123 -38.5 -235.5t-107.5 -208.5z" />
    <glyph glyph-name="asterisk" unicode="*" horiz-adv-x="463" 
d="M274 566l135 44l26 -80l-136 -44l86 -117l-69 -50l-86 118l-84 -115l-67 51l86 113l-137 47l26 80l136 -47v142h84v-142z" />
    <glyph glyph-name="plus" unicode="+" horiz-adv-x="666" 
d="M282 354v220h102v-220h220v-102h-220v-220h-102v220h-220v102h220z" />
    <glyph glyph-name="comma" unicode="," horiz-adv-x="296" 
d="M108 138h122l-85 -264h-107z" />
    <glyph glyph-name="hyphen" unicode="-" horiz-adv-x="315" 
d="M281 195h-247v102h247v-102z" />
    <glyph glyph-name="hyphen" unicode="&#x2010;" horiz-adv-x="315" 
d="M281 195h-247v102h247v-102z" />
    <glyph glyph-name="hyphen" unicode="&#xad;" horiz-adv-x="315" 
d="M281 195h-247v102h247v-102z" />
    <glyph glyph-name="period" unicode="." horiz-adv-x="296" 
d="M68 70q0 32 23.5 55t56.5 23q32 0 56 -22t24 -54t-23.5 -55t-56.5 -23q-32 0 -56 22t-24 54z" />
    <glyph glyph-name="slash" unicode="/" horiz-adv-x="389" 
d="M74 -48l-83 30l312 776l83 -32z" />
    <glyph glyph-name="zero" unicode="0" horiz-adv-x="592" 
d="M40 354q0 84 13.5 143.5t35.5 100t49.5 65t56 37t55 16.5t46.5 4t46.5 -4t55 -16.5t56 -37t49.5 -65t35.5 -100t13.5 -143.5t-13.5 -143.5t-35.5 -100t-49.5 -65t-56 -37t-55 -16.5t-46.5 -4t-46.5 4t-55 16.5t-56 37t-49.5 65t-35.5 100t-13.5 143.5zM160 354
q0 -33 4.5 -76.5t18.5 -82.5t41 -66t72 -27t72 27t41 66t18.5 82.5t4.5 76.5t-4.5 76.5t-18.5 82.5t-41 66t-72 27t-72 -27t-41 -66t-18.5 -82.5t-4.5 -76.5z" />
    <glyph glyph-name="one" unicode="1" horiz-adv-x="592" 
d="M268 570l-133 -123l-70 83l214 178h109v-708h-120v570z" />
    <glyph glyph-name="two" unicode="2" horiz-adv-x="592" 
d="M59 127l275 266q12 12 25 25.5t23.5 28.5t17.5 31.5t7 34.5q0 22 -8.5 39t-22.5 29t-32.5 18.5t-39.5 6.5q-45 0 -74 -25.5t-35 -70.5l-126 10q4 49 23.5 86.5t50.5 62.5t72 38t89 13t89.5 -12.5t72.5 -37t49 -62.5t18 -89q0 -67 -30.5 -115.5t-78.5 -92.5l-219 -203h328
v-108h-474v127z" />
    <glyph glyph-name="three" unicode="3" horiz-adv-x="592" 
d="M222 423h31q25 0 50 3t44.5 13t31.5 29t12 51q0 42 -28 67.5t-73 25.5q-36 0 -64.5 -20.5t-41.5 -57.5l-127 34q12 39 34 68t52 47.5t66 27.5t75 9q46 0 87 -12t72 -35.5t49.5 -59t18.5 -82.5q0 -57 -32 -101.5t-89 -58.5v-2q69 -10 103.5 -58t34.5 -114q0 -51 -19.5 -90
t-52.5 -65.5t-76.5 -40t-90.5 -13.5q-44 0 -83 9.5t-70.5 29.5t-54.5 51.5t-35 75.5l128 34q11 -45 39 -68.5t76 -23.5q24 0 45.5 8t38 22.5t26 35t9.5 45.5q0 34 -14.5 55.5t-37 33t-50.5 15.5t-55 4h-29v108z" />
    <glyph glyph-name="four" unicode="4" horiz-adv-x="592" 
d="M335 144h-301v119l285 445h136v-456h103v-108h-103v-144h-120v144zM335 538h-2l-177 -286h179v286z" />
    <glyph glyph-name="five" unicode="5" horiz-adv-x="592" 
d="M505 600h-285l-3 -141q14 5 35.5 7t40.5 2q52 0 95.5 -16.5t74.5 -47.5t48.5 -74t17.5 -97q0 -57 -19.5 -102.5t-54 -77t-81.5 -48.5t-101 -17q-85 0 -144.5 40t-84.5 122l126 34q12 -38 41 -60t75 -22q27 0 49.5 9t39 25.5t25.5 38.5t9 48q0 37 -13.5 63t-36.5 42.5
t-53 24t-63 7.5q-39 0 -77.5 -9t-70.5 -25l7 382h403v-108z" />
    <glyph glyph-name="six" unicode="6" horiz-adv-x="592" 
d="M437 708l-170 -262l2 -2q11 6 29.5 9t36.5 3q47 0 86 -18t67.5 -49t44 -72t15.5 -87q0 -56 -19 -100.5t-52.5 -76t-80 -48.5t-100.5 -17q-56 0 -102 16.5t-79.5 47.5t-52 76t-18.5 101q0 57 18.5 101.5t47.5 92.5l181 285h146zM170 231q0 -27 10 -50.5t27.5 -41t41 -27.5
t50.5 -10t50.5 10t41 27.5t27.5 41t10 50.5t-10 50.5t-27.5 41t-41 27.5t-50.5 10t-50.5 -10t-41 -27.5t-27.5 -41t-10 -50.5z" />
    <glyph glyph-name="seven" unicode="7" horiz-adv-x="592" 
d="M42 708h481v-110l-283 -598h-141l289 594h-346v114z" />
    <glyph glyph-name="eight" unicode="8" horiz-adv-x="592" 
d="M296 720q45 0 84.5 -12.5t69 -36t46.5 -58t17 -79.5q0 -57 -26.5 -100t-80.5 -59v-2q25 -5 48.5 -20.5t41.5 -38t28.5 -51.5t10.5 -62q0 -53 -19 -92.5t-51 -66.5t-76 -40.5t-93 -13.5q-50 0 -93.5 13.5t-75.5 40.5t-51 66.5t-19 92.5q0 33 10.5 62t28.5 51.5t41 38
t49 20.5v2q-54 16 -80.5 59t-26.5 100q0 45 17 79.5t46.5 58t69 36t84.5 12.5zM296 618q-46 0 -71.5 -28t-25.5 -68q0 -42 26 -70.5t71 -28.5q20 0 37.5 7.5t31 21t21 31.5t7.5 39q0 40 -27.5 68t-69.5 28zM296 327q-24 0 -46 -8t-38 -23t-25.5 -35.5t-9.5 -44.5
q0 -51 33.5 -82.5t85.5 -31.5t85.5 31.5t33.5 82.5q0 24 -9.5 44.5t-25.5 35.5t-38 23t-46 8z" />
    <glyph glyph-name="nine" unicode="9" horiz-adv-x="592" 
d="M155 0l170 262l-2 2q-11 -6 -29.5 -9t-36.5 -3q-47 0 -86 18t-67.5 49t-44 72t-15.5 87q0 55 19 100t52.5 76.5t80 48.5t100.5 17q55 0 101.5 -16.5t80 -47.5t52 -76t18.5 -101q0 -57 -18.5 -101.5t-47.5 -92.5l-181 -285h-146zM422 477q0 27 -10 50.5t-27.5 41t-41 27.5
t-50.5 10t-50.5 -10t-41 -27.5t-27.5 -41t-10 -50.5t10 -50.5t27.5 -41t41 -27.5t50.5 -10t50.5 10t41 27.5t27.5 41t10 50.5z" />
    <glyph glyph-name="colon" unicode=":" horiz-adv-x="296" 
d="M68 70q0 32 23.5 55t56.5 23q32 0 56 -22t24 -54t-23.5 -55t-56.5 -23q-32 0 -56 22t-24 54zM68 409q0 32 23.5 55t56.5 23q32 0 56 -22t24 -54t-23.5 -55t-56.5 -23q-32 0 -56 22t-24 54z" />
    <glyph glyph-name="semicolon" unicode=";" horiz-adv-x="296" 
d="M108 138h122l-85 -264h-107zM68 409q0 32 23.5 55t56.5 23q32 0 56 -22t24 -54t-23.5 -55t-56.5 -23q-32 0 -56 22t-24 54z" />
    <glyph glyph-name="less" unicode="&#x3c;" horiz-adv-x="666" 
d="M80 267v72l506 225v-110l-338 -151l338 -151v-110z" />
    <glyph glyph-name="equal" unicode="=" horiz-adv-x="666" 
d="M604 444v-102h-542v102h542zM604 264v-102h-542v102h542z" />
    <glyph glyph-name="greater" unicode="&#x3e;" horiz-adv-x="666" 
d="M586 339v-72l-506 -225v110l338 151l-338 151v110z" />
    <glyph glyph-name="question" unicode="?" horiz-adv-x="519" 
d="M210 209v55q0 23 3 38t9 27t16.5 24t25.5 28l77 78q25 25 25 65q0 39 -25.5 63.5t-64.5 24.5q-42 0 -69 -28t-31 -70l-128 10q12 97 74 149.5t159 52.5q45 0 83.5 -13t67 -37.5t44.5 -61t16 -83.5q0 -33 -9 -58t-24 -46t-34.5 -40t-41.5 -40q-14 -13 -24 -23t-16.5 -20.5
t-9.5 -24t-3 -32.5v-38h-120zM190 70q0 32 23.5 55t56.5 23q32 0 56 -22t24 -54t-23.5 -55t-56.5 -23q-32 0 -56 22t-24 54z" />
    <glyph glyph-name="at" unicode="@" horiz-adv-x="800" 
d="M401 456q-26 0 -45.5 -9.5t-33 -26t-20.5 -38.5t-7 -47q0 -8 1.5 -23.5t9 -30.5t24.5 -26.5t48 -11.5q28 0 47 11t30 28.5t15.5 39t4.5 42.5q0 40 -18 66t-56 26zM727 133q-54 -75 -134 -113t-173 -38q-80 0 -150.5 27.5t-123.5 76.5t-83.5 117.5t-30.5 149.5
q0 79 30 147.5t82 118.5t121.5 78.5t148.5 28.5q66 0 129.5 -21.5t113.5 -63.5t80.5 -103.5t30.5 -140.5q0 -53 -12.5 -92t-32 -66t-44 -44t-49 -26t-47 -12.5t-37.5 -3.5q-42 0 -60 17t-19 37h-2q-20 -20 -50 -37t-78 -17q-32 0 -58.5 12.5t-45.5 34.5t-29.5 53t-10.5 68
q0 44 14 84.5t39.5 72t62.5 50t84 18.5q40 0 66.5 -13t41.5 -44h2l8 45h94l-37 -197l-6 -28t-3 -29q0 -18 5.5 -27.5t21.5 -9.5t31.5 8.5t27.5 27t19.5 46.5t7.5 67q0 60 -19.5 105.5t-54 76.5t-82.5 46.5t-105 15.5q-62 0 -113 -21t-87.5 -59t-56.5 -90t-20 -113
q0 -66 22 -118t61.5 -88t93.5 -55.5t117 -19.5q57 0 104.5 16t84.5 45h110z" />
    <glyph glyph-name="A" unicode="A" horiz-adv-x="722" 
d="M308 708h109l305 -708h-144l-66 162h-307l-64 -162h-141zM468 270l-109 288l-111 -288h220z" />
    <glyph glyph-name="B" unicode="B" horiz-adv-x="648" 
d="M79 708h276q40 0 79 -9.5t69.5 -31t49.5 -55.5t19 -82q0 -60 -34 -99t-89 -56v-2q33 -4 61.5 -18.5t48.5 -37t31.5 -52t11.5 -63.5q0 -58 -23 -96.5t-60.5 -62t-86 -33.5t-98.5 -10h-255v708zM205 420h115q63 0 94.5 24.5t31.5 64.5q0 46 -32.5 68.5t-104.5 22.5h-104
v-180zM205 108h116q24 0 51.5 3t50.5 14t38 31.5t15 55.5q0 57 -36 78.5t-114 21.5h-121v-204z" />
    <glyph glyph-name="C" unicode="C" horiz-adv-x="685" 
d="M565 542q-39 42 -75.5 56t-73.5 14q-55 0 -99.5 -19.5t-76.5 -54t-49.5 -80.5t-17.5 -99q0 -57 17.5 -105t49.5 -83t76.5 -55t99.5 -20q43 0 83.5 20.5t75.5 65.5l104 -74q-48 -66 -117 -96t-147 -30q-82 0 -150.5 26.5t-118 75t-77.5 116.5t-28 151q0 85 28 154.5
t77.5 118.5t118 75.5t150.5 26.5q72 0 133 -25.5t115 -86.5z" />
    <glyph glyph-name="D" unicode="D" horiz-adv-x="759" 
d="M79 708h279q70 0 135 -21.5t115 -65.5t80 -110.5t30 -156.5q0 -91 -34.5 -157.5t-89 -110t-121 -65t-130.5 -21.5h-264v708zM299 114q59 0 111.5 13.5t91.5 42t61.5 74t22.5 110.5q0 64 -20 110t-55.5 74.5t-84 42t-106.5 13.5h-115v-480h94z" />
    <glyph glyph-name="E" unicode="E" horiz-adv-x="611" 
d="M79 708h469v-114h-343v-174h325v-114h-325v-192h361v-114h-487v708z" />
    <glyph glyph-name="F" unicode="F" horiz-adv-x="574" 
d="M79 708h457v-114h-331v-186h312v-114h-312v-294h-126v708z" />
    <glyph glyph-name="G" unicode="G" horiz-adv-x="778" 
d="M708 52q-130 -70 -293 -70q-82 0 -150.5 26.5t-118 75t-77.5 116.5t-28 151q0 85 28 154.5t77.5 118.5t118 75.5t150.5 26.5q81 0 151.5 -19t127.5 -70l-93 -94q-34 33 -82.5 51t-102.5 18q-55 0 -99.5 -19.5t-76.5 -54t-49.5 -80.5t-17.5 -99q0 -57 17.5 -105t49.5 -83
t76.5 -55t99.5 -20q48 0 90.5 9t75.5 28v167h-145v114h271v-362z" />
    <glyph glyph-name="H" unicode="H" horiz-adv-x="741" 
d="M79 708h126v-282h331v282h126v-708h-126v312h-331v-312h-126v708z" />
    <glyph glyph-name="I" unicode="I" horiz-adv-x="278" 
d="M76 708h126v-708h-126v708z" />
    <glyph glyph-name="J" unicode="J" horiz-adv-x="500" 
d="M426 196q0 -42 -13.5 -81t-40 -68.5t-66.5 -47t-93 -17.5q-85 0 -138 39t-70 124l118 28q6 -35 28.5 -56t55.5 -21q54 0 73.5 36.5t19.5 100.5v475h126v-512z" />
    <glyph glyph-name="K" unicode="K" horiz-adv-x="685" 
d="M79 708h126v-300h6l293 300h170l-331 -327l353 -381h-177l-307 348h-7v-348h-126v708z" />
    <glyph glyph-name="L" unicode="L" horiz-adv-x="519" 
d="M79 708h126v-594h301v-114h-427v708z" />
    <glyph glyph-name="M" unicode="M" horiz-adv-x="926" 
d="M82 708h192l189 -496l191 496h190v-708h-120v588h-2l-215 -588h-88l-215 588h-2v-588h-120v708z" />
    <glyph glyph-name="N" unicode="N" horiz-adv-x="796" 
d="M79 708h167l343 -526h2v526h126v-708h-160l-350 543h-2v-543h-126v708z" />
    <glyph glyph-name="O" unicode="O" horiz-adv-x="833" 
d="M41 351q0 85 28 154.5t77.5 118.5t118 75.5t150.5 26.5t151.5 -26t119.5 -74.5t78 -117t28 -153.5q0 -83 -28 -151.5t-78 -118t-119.5 -76.5t-151.5 -27t-150.5 26.5t-118 75t-77.5 116.5t-28 151zM173 359q0 -57 17.5 -105t49.5 -83t76.5 -55t99.5 -20t100 20t77 55
t49.5 83t17.5 105q0 53 -17.5 99t-49.5 80.5t-77 54t-100 19.5t-99.5 -19.5t-76.5 -54t-49.5 -80.5t-17.5 -99z" />
    <glyph glyph-name="P" unicode="P" horiz-adv-x="611" 
d="M79 708h238q51 0 98.5 -10t83.5 -33.5t57.5 -63t21.5 -98.5q0 -67 -23 -108t-62 -63.5t-90.5 -30.5t-107.5 -8h-90v-293h-126v708zM281 401q27 0 56 2t53.5 12t40 30t15.5 56q0 33 -14 52.5t-36 30t-49 13.5t-52 3h-90v-199h76z" />
    <glyph glyph-name="Q" unicode="Q" horiz-adv-x="852" 
d="M839 0h-412q-83 0 -153.5 25.5t-122 73t-81 116t-29.5 154.5q0 78 29.5 143.5t80.5 113t118.5 74t143.5 26.5t143.5 -26.5t118.5 -74t80.5 -113t29.5 -143.5q0 -56 -14 -98.5t-35.5 -74.5t-48 -54.5t-51.5 -37.5v-2h203v-102zM410 612q-51 0 -94.5 -18.5t-75 -51.5
t-49.5 -78t-18 -98q0 -54 18 -100.5t50 -80t75.5 -52.5t95.5 -19t96.5 19t76.5 52.5t50 80t18 100.5q0 53 -18 98t-50 78t-76.5 51.5t-98.5 18.5z" />
    <glyph glyph-name="R" unicode="R" horiz-adv-x="630" 
d="M79 708h246q51 0 98.5 -9.5t84.5 -32.5t59 -62t22 -99q0 -78 -42.5 -129.5t-121.5 -62.5l188 -313h-152l-164 300h-92v-300h-126v708zM303 408q27 0 54 2.5t49.5 12t36.5 29t14 54.5q0 31 -13 50t-34 28.5t-46.5 12.5t-49.5 3h-109v-192h98z" />
    <glyph glyph-name="S" unicode="S" horiz-adv-x="574" 
d="M426 556q-20 29 -53.5 42.5t-70.5 13.5q-22 0 -42.5 -5t-37 -16t-26.5 -28.5t-10 -41.5q0 -36 25 -55t62 -33t81 -27t81 -36t62 -61t25 -101q0 -57 -21 -99.5t-56.5 -70.5t-82.5 -42t-99 -14q-66 0 -126.5 22t-105.5 74l95 92q23 -35 60.5 -54.5t79.5 -19.5q22 0 44 6
t40 18t29 30.5t11 42.5q0 39 -25 60t-62 35.5t-81 27.5t-81 35.5t-62 60t-25 100.5q0 55 22.5 95t59 66.5t83.5 39.5t96 13q57 0 109 -17t94 -56z" />
    <glyph glyph-name="T" unicode="T" horiz-adv-x="574" 
d="M224 594h-217v114h560v-114h-217v-594h-126v594z" />
    <glyph glyph-name="U" unicode="U" horiz-adv-x="722" 
d="M646 260q0 -64 -22 -115.5t-60 -87.5t-90 -55.5t-113 -19.5t-113 19.5t-90.5 55.5t-60 87.5t-21.5 115.5v448h126v-444q0 -26 8 -54.5t26.5 -52.5t49 -39.5t75.5 -15.5t75.5 15.5t49 39.5t26.5 52.5t8 54.5v444h126v-448z" />
    <glyph glyph-name="V" unicode="V" horiz-adv-x="667" 
d="M-3 708h145l193 -535l199 535h136l-286 -708h-109z" />
    <glyph glyph-name="W" unicode="W" horiz-adv-x="981" 
d="M0 708h138l133 -510h2l159 510h124l156 -510h2l139 510h128l-206 -708h-120l-164 539h-2l-164 -539h-116z" />
    <glyph glyph-name="X" unicode="X" horiz-adv-x="685" 
d="M252 370l-236 338h159l167 -262l165 262h153l-232 -338l257 -370h-160l-187 299l-186 -299h-152z" />
    <glyph glyph-name="Y" unicode="Y" horiz-adv-x="630" 
d="M252 303l-266 405h158l174 -282l176 282h150l-266 -405v-303h-126v303z" />
    <glyph glyph-name="Z" unicode="Z" horiz-adv-x="611" 
d="M35 114l378 480h-372v114h529v-114l-381 -480h387v-114h-541v114z" />
    <glyph glyph-name="bracketleft" unicode="[" horiz-adv-x="278" 
d="M258 654h-90v-732h90v-78h-192v888h192v-78z" />
    <glyph glyph-name="backslash" unicode="\" horiz-adv-x="389" 
d="M86 758l312 -776l-83 -30l-312 774z" />
    <glyph glyph-name="bracketright" unicode="]" horiz-adv-x="278" 
d="M20 -78h90v732h-90v78h192v-888h-192v78z" />
    <glyph glyph-name="asciicircum" unicode="^" horiz-adv-x="666" 
d="M69 343l223 365h82l223 -365h-118l-147 239l-145 -239h-118z" />
    <glyph glyph-name="underscore" unicode="_" horiz-adv-x="500" 
d="M0 -125v50h500v-50h-500z" />
    <glyph glyph-name="grave" unicode="`" horiz-adv-x="260" 
d="M177 564h-94l-141 144h136z" />
    <glyph glyph-name="a" unicode="a" horiz-adv-x="537" 
d="M368 66h-3q-26 -42 -66 -60t-88 -18q-33 0 -64.5 9t-56 27t-39.5 45t-15 63q0 39 14 66.5t37.5 46t54.5 29.5t64.5 16.5t67.5 7t64 1.5h30v13q0 45 -31 67.5t-79 22.5q-38 0 -71 -13.5t-57 -36.5l-63 63q40 42 93.5 59.5t110.5 17.5q51 0 86 -11.5t58 -29.5t35.5 -41.5
t18 -47.5t6.5 -46.5t1 -39.5v-276h-108v66zM361 215h-25q-25 0 -56 -2t-58.5 -9.5t-46.5 -22.5t-19 -40q0 -17 7.5 -28.5t19.5 -19.5t27 -11.5t30 -3.5q63 0 92 29.5t29 80.5v27z" />
    <glyph glyph-name="b" unicode="b" horiz-adv-x="630" 
d="M68 756h120v-337h3q9 12 23 24.5t34 23.5t46.5 18t59.5 7q51 0 94 -19.5t73.5 -53.5t47.5 -80t17 -99t-16 -99t-47 -80t-75 -53.5t-99 -19.5q-51 0 -95 19.5t-70 64.5h-2v-72h-114v756zM466 240q0 28 -9.5 54t-28 46t-44.5 32t-59 12t-59 -12t-44.5 -32t-28 -46t-9.5 -54
t9.5 -54t28 -46t44.5 -32t59 -12t59 12t44.5 32t28 46t9.5 54z" />
    <glyph glyph-name="c" unicode="c" horiz-adv-x="482" 
d="M396 336q-21 22 -44 35t-47 13q-33 0 -59 -12t-44.5 -32t-28 -46t-9.5 -54t9.5 -54t28 -46t44.5 -32t59 -12q57 0 93 45l80 -86q-18 -18 -41.5 -31t-47.5 -21t-46 -11.5t-38 -3.5q-54 0 -102 18t-83 51t-55.5 79.5t-20.5 103.5t20.5 103.5t55.5 79.5t83 51t102 18
q46 0 92.5 -17.5t81.5 -55.5z" />
    <glyph glyph-name="d" unicode="d" horiz-adv-x="630" 
d="M448 72h-2q-26 -45 -70 -64.5t-95 -19.5q-56 0 -99.5 19.5t-74.5 53.5t-47 80t-16 99t17 99t47.5 80t73.5 53.5t94 19.5q33 0 59.5 -7t46.5 -18t34 -23.5t23 -24.5h3v337h120v-756h-114v72zM164 240q0 -28 9.5 -54t28 -46t44.5 -32t59 -12t59 12t44.5 32t28 46t9.5 54
t-9.5 54t-28 46t-44.5 32t-59 12t-59 -12t-44.5 -32t-28 -46t-9.5 -54z" />
    <glyph glyph-name="e" unicode="e" horiz-adv-x="574" 
d="M164 198q6 -54 42 -84t87 -30q45 0 75.5 18.5t53.5 46.5l86 -65q-42 -52 -94 -74t-109 -22q-54 0 -102 18t-83 51t-55.5 79.5t-20.5 103.5t20.5 103.5t55.5 79.5t83 51t102 18q50 0 91.5 -17.5t71 -50.5t46 -81.5t16.5 -111.5v-33h-366zM410 288q-1 54 -33 84t-89 30
q-54 0 -85.5 -31t-38.5 -83h246z" />
    <glyph glyph-name="f" unicode="f" horiz-adv-x="352" 
d="M111 378h-99v102h99v68q0 50 7 90.5t26.5 69.5t54.5 44.5t91 15.5q20 0 39.5 -1.5t36.5 -5.5l-8 -102q-13 3 -25 5t-25 2q-25 0 -40 -8t-23.5 -21.5t-11 -31.5t-2.5 -38v-87h111v-102h-111v-378h-120v378z" />
    <glyph glyph-name="g" unicode="g" horiz-adv-x="630" 
d="M562 480v-437q0 -65 -16 -117.5t-49.5 -89t-84.5 -56.5t-121 -20q-67 0 -127 17t-111 62l72 98q36 -33 75 -51t90 -18q43 0 72.5 12t47 33t25 50.5t7.5 65.5v35h-2q-26 -35 -69 -52.5t-88 -17.5q-54 0 -98 19.5t-75.5 52.5t-48.5 78t-17 96q0 53 16 99t47 80t74.5 53.5
t99.5 19.5q51 0 95 -19.5t70 -64.5h2v72h114zM306 384q-32 0 -58 -10.5t-44.5 -29t-29 -45t-10.5 -58.5q0 -29 10.5 -54t29.5 -44t45 -30t56 -11q33 0 59.5 11t45 29.5t28.5 44.5t10 56q0 63 -38 102t-104 39z" />
    <glyph glyph-name="h" unicode="h" horiz-adv-x="574" 
d="M188 413h2q14 30 49 54.5t92 24.5q48 0 81.5 -16t54.5 -42t30 -60t9 -71v-303h-120v243q0 20 -2 44.5t-10.5 46t-26.5 36t-49 14.5q-30 0 -50.5 -10t-34 -27t-19.5 -39t-6 -46v-262h-120v756h120v-343z" />
    <glyph glyph-name="i" unicode="i" horiz-adv-x="260" 
d="M70 480h120v-480h-120v480zM53 643q0 29 21.5 50.5t54.5 21.5t55.5 -20.5t22.5 -51.5t-22.5 -51.5t-55.5 -20.5t-54.5 21.5t-21.5 50.5z" />
    <glyph glyph-name="j" unicode="j" horiz-adv-x="260" 
d="M190 480v-509q0 -45 -6 -83.5t-23.5 -67t-49.5 -44.5t-83 -16q-17 0 -33 2t-32 7l9 104q10 -2 19 -3.5t19 -1.5q22 0 34.5 9.5t18 24.5t6.5 33t1 35v510h120zM53 643q0 29 21.5 50.5t54.5 21.5t55.5 -20.5t22.5 -51.5t-22.5 -51.5t-55.5 -20.5t-54.5 21.5t-21.5 50.5z
" />
    <glyph glyph-name="k" unicode="k" horiz-adv-x="537" 
d="M68 756h120v-475l185 199h154l-206 -218l219 -262h-159l-191 245h-2v-245h-120v756z" />
    <glyph glyph-name="l" unicode="l" horiz-adv-x="260" 
d="M70 756h120v-756h-120v756z" />
    <glyph glyph-name="m" unicode="m" horiz-adv-x="870" 
d="M63 480h114v-75h2q16 34 51.5 60.5t95.5 26.5q112 0 150 -89q26 46 65 67.5t93 21.5q48 0 81 -16t53.5 -44t29.5 -65.5t9 -80.5v-286h-120v272q0 22 -4 42.5t-14 36t-27 24.5t-44 9q-28 0 -47.5 -10.5t-32 -28t-18 -40t-5.5 -45.5v-260h-120v286q0 45 -18.5 71.5
t-63.5 26.5q-30 0 -50.5 -10t-34 -27t-19.5 -39t-6 -46v-262h-120v480z" />
    <glyph glyph-name="n" unicode="n" horiz-adv-x="574" 
d="M68 480h114v-77h2q17 36 52 62.5t95 26.5q48 0 81.5 -16t54.5 -42t30 -60t9 -71v-303h-120v243q0 20 -2 44.5t-10.5 46t-26.5 36t-49 14.5q-30 0 -50.5 -10t-34 -27t-19.5 -39t-6 -46v-262h-120v480z" />
    <glyph glyph-name="o" unicode="o" horiz-adv-x="610" 
d="M44 240q0 57 20.5 103.5t55.5 79.5t83 51t102 18t102 -18t83 -51t55.5 -79.5t20.5 -103.5t-20.5 -103.5t-55.5 -79.5t-83 -51t-102 -18t-102 18t-83 51t-55.5 79.5t-20.5 103.5zM164 240q0 -28 9.5 -54t28 -46t44.5 -32t59 -12t59 12t44.5 32t28 46t9.5 54t-9.5 54
t-28 46t-44.5 32t-59 12t-59 -12t-44.5 -32t-28 -46t-9.5 -54z" />
    <glyph glyph-name="p" unicode="p" horiz-adv-x="630" 
d="M68 480h114v-72h2q26 45 70 64.5t95 19.5q55 0 99 -19.5t75 -53.5t47 -80t16 -99t-17 -99t-47.5 -80t-73.5 -53.5t-94 -19.5q-33 0 -59.5 7t-46.5 18t-34 23.5t-23 24.5h-3v-289h-120v708zM466 240q0 28 -9.5 54t-28 46t-44.5 32t-59 12t-59 -12t-44.5 -32t-28 -46
t-9.5 -54t9.5 -54t28 -46t44.5 -32t59 -12t59 12t44.5 32t28 46t9.5 54z" />
    <glyph glyph-name="q" unicode="q" horiz-adv-x="630" 
d="M562 -228h-120v289h-3q-9 -12 -23 -24.5t-34 -23.5t-46.5 -18t-59.5 -7q-51 0 -94 19.5t-73.5 53.5t-47.5 80t-17 99t16 99t47 80t74.5 53.5t99.5 19.5q51 0 95 -19.5t70 -64.5h2v72h114v-708zM164 240q0 -28 9.5 -54t28 -46t44.5 -32t59 -12t59 12t44.5 32t28 46t9.5 54
t-9.5 54t-28 46t-44.5 32t-59 12t-59 -12t-44.5 -32t-28 -46t-9.5 -54z" />
    <glyph glyph-name="r" unicode="r" horiz-adv-x="389" 
d="M68 480h120v-76h2q20 42 57 65t85 23q11 0 21.5 -2t21.5 -5v-116q-15 4 -29.5 6.5t-28.5 2.5q-42 0 -67.5 -15.5t-39 -35.5t-18 -40t-4.5 -30v-257h-120v480z" />
    <glyph glyph-name="s" unicode="s" horiz-adv-x="444" 
d="M324 347q-34 49 -94 49q-24 0 -47 -12t-23 -39q0 -22 19 -32t48 -17t62.5 -14.5t62.5 -23t48 -42.5t19 -74q0 -43 -18.5 -72.5t-48 -47.5t-66.5 -26t-74 -8q-57 0 -103.5 16t-83.5 58l80 75q23 -26 49.5 -42.5t64.5 -16.5q13 0 27 3t26 10t19.5 17.5t7.5 24.5
q0 25 -19 37t-48 19.5t-62.5 14t-62.5 21t-48 40.5t-19 72q0 40 16.5 69.5t43.5 48.5t62 28t71 9q48 0 95 -16.5t76 -56.5z" />
    <glyph glyph-name="t" unicode="t" horiz-adv-x="389" 
d="M12 378v102h99v139h120v-139h132v-102h-132v-210q0 -36 13.5 -57t53.5 -21q16 0 35 3.5t30 11.5v-101q-19 -9 -46.5 -12.5t-48.5 -3.5q-48 0 -78.5 10.5t-48 32t-24 53.5t-6.5 74v220h-99z" />
    <glyph glyph-name="u" unicode="u" horiz-adv-x="574" 
d="M506 0h-114v77h-2q-17 -36 -52 -62.5t-95 -26.5q-48 0 -81.5 15.5t-54.5 42t-30 60.5t-9 71v303h120v-243q0 -20 2 -44.5t10.5 -46t26 -36t49.5 -14.5q30 0 50.5 10t34 27t19.5 39t6 46v262h120v-480z" />
    <glyph glyph-name="v" unicode="v" horiz-adv-x="519" 
d="M3 480h131l128 -336h2l129 336h123l-189 -480h-128z" />
    <glyph glyph-name="w" unicode="w" horiz-adv-x="796" 
d="M3 480h130l104 -336h2l97 336h130l104 -336h2l100 336h121l-163 -480h-119l-114 328h-2l-101 -328h-124z" />
    <glyph glyph-name="x" unicode="x" horiz-adv-x="537" 
d="M192 258l-166 222h146l96 -144l104 144h137l-164 -222l193 -258h-146l-125 172l-126 -172h-142z" />
    <glyph glyph-name="y" unicode="y" horiz-adv-x="519" 
d="M3 480h132l134 -333h2l120 333h125l-227 -583q-13 -34 -28.5 -59.5t-36.5 -43t-49.5 -26t-68.5 -8.5q-47 0 -92 12l15 108q14 -5 29.5 -8.5t31.5 -3.5q22 0 37 4t25 12.5t17.5 22t15.5 32.5l23 57z" />
    <glyph glyph-name="z" unicode="z" horiz-adv-x="482" 
d="M34 111l257 271v2h-245v96h390v-109l-260 -275h272v-96h-414v111z" />
    <glyph glyph-name="braceleft" unicode="{" horiz-adv-x="278" 
d="M0 332q10 0 26 3t31 10.5t26 21.5t11 35v198q0 34 14 58.5t34 41t42 24.5t38 8h91v-84h-55q-21 0 -33.5 -7t-19 -17.5t-8 -23t-1.5 -22.5v-188q0 -29 -11 -48t-26.5 -30.5t-32 -16.5t-28.5 -6v-2q12 -1 28.5 -5t32 -15t26.5 -32t11 -55v-182q0 -11 1.5 -23t8 -22.5
t19 -17.5t33.5 -7h55v-84h-91q-16 0 -38 8t-42 24.5t-34 41t-14 58.5v191q0 24 -11 39t-26 23.5t-31 11.5t-26 3v88z" />
    <glyph glyph-name="bar" unicode="|" horiz-adv-x="222" 
d="M162 750v-1000h-102v1000h102z" />
    <glyph glyph-name="braceright" unicode="}" horiz-adv-x="278" 
d="M278 244q-11 0 -27 -3t-31 -10.5t-25.5 -21.5t-10.5 -35v-198q0 -34 -14 -58.5t-34 -41t-42 -24.5t-38 -8h-91v84h55q21 0 33.5 7t19 17.5t8 22.5t1.5 23v188q0 29 11 48t26.5 30t32 16t28.5 7v2q-12 1 -28.5 5t-32 15t-26.5 31.5t-11 55.5v182q0 10 -1.5 22.5t-8 23
t-19 17.5t-33.5 7h-55v84h91q16 0 38 -8t42 -24.5t34 -41t14 -58.5v-191q0 -24 10.5 -39t25.5 -23.5t31 -11.5t27 -3v-88z" />
    <glyph glyph-name="asciitilde" unicode="~" horiz-adv-x="666" 
d="M565 301q-11 -16 -23 -31.5t-27 -27.5t-33.5 -19.5t-41.5 -7.5q-28 0 -52.5 9.5t-49.5 23.5q-24 14 -52 24.5t-63 10.5q-17 0 -30.5 -6.5t-24 -16t-18 -21.5t-13.5 -24l-36 84q8 16 19 31.5t26 27.5t34 19.5t43 7.5q29 0 58 -9.5t58 -22.5q28 -12 54.5 -24t46.5 -12
q16 0 28.5 6.5t23 16t19.5 21.5l18 24z" />
    <glyph glyph-name="exclamdown" unicode="&#xa1;" horiz-adv-x="296" 
d="M88 265h120v-487h-120v487zM228 416q0 -32 -23.5 -55t-56.5 -23q-32 0 -56 22t-24 54t23.5 55t56.5 23q32 0 56 -22t24 -54z" />
    <glyph glyph-name="cent" unicode="&#xa2;" horiz-adv-x="592" 
d="M354 492q48 -2 93.5 -17t76.5 -52l-77 -78q-37 40 -93 45v-300q28 0 53.5 13t43.5 33l73 -79q-32 -35 -77 -51t-93 -18v-72h-54v72q-51 4 -92.5 25.5t-70 55t-44 78t-15.5 94.5q0 105 59.5 171t162.5 80v67h54v-67zM300 389q-56 -12 -82 -52.5t-26 -96.5q0 -54 27 -95
t81 -55v299z" />
    <glyph glyph-name="sterling" unicode="&#xa3;" horiz-adv-x="592" 
d="M66 96h102v219h-102v84h102v100q0 37 13 76t41 71.5t72 53t106 20.5q54 0 104 -15.5t87 -48.5l-81 -87q-22 20 -48 31.5t-58 11.5q-28 0 -49.5 -10.5t-36.5 -27.5t-22.5 -39t-7.5 -46v-90h162v-84h-162v-219h253v-96h-475v96z" />
    <glyph glyph-name="currency" unicode="&#xa4;" horiz-adv-x="592" 
d="M36 155l49 49q-23 32 -36 70t-13 81q0 42 13 80.5t36 70.5l-49 49l60 59l49 -48q32 23 70 35.5t81 12.5t81 -12.5t70 -35.5l49 48l60 -59l-49 -49q49 -67 49 -151q0 -42 -13 -80.5t-36 -70.5l49 -49l-60 -60l-49 49q-32 -23 -70 -36t-81 -13q-84 0 -151 49l-49 -49z
M150 355q0 -69 39.5 -110.5t106.5 -41.5t106.5 41.5t39.5 110.5t-39.5 110t-106.5 41t-106.5 -41t-39.5 -110z" />
    <glyph glyph-name="yen" unicode="&#xa5;" horiz-adv-x="592" 
d="M236 177h-170v78h170v48l-19 34h-151v78h108l-162 293h135l155 -294l149 294h129l-162 -293h108v-78h-151l-19 -34v-48h170v-78h-170v-177h-120v177z" />
    <glyph glyph-name="brokenbar" unicode="&#xa6;" horiz-adv-x="222" 
d="M162 675v-350h-102v350h102zM162 175v-350h-102v350h102z" />
    <glyph glyph-name="section" unicode="&#xa7;" horiz-adv-x="593" 
d="M398 566q-11 30 -37 47t-58 17q-30 0 -55.5 -16t-25.5 -50q0 -28 22 -46.5t55.5 -34t72.5 -31.5t72.5 -38.5t55.5 -54.5t22 -79q0 -42 -24 -76.5t-61 -51.5q29 -22 45 -52.5t16 -66.5q0 -45 -20 -78.5t-52 -55.5t-72 -32.5t-79 -10.5q-35 0 -68.5 6t-62.5 20.5t-52.5 38
t-38.5 58.5l107 52q11 -38 44 -55.5t70 -17.5q15 0 31.5 3.5t30 11t22 20t8.5 30.5q0 28 -22 46t-55.5 33t-72.5 30.5t-72.5 37t-55.5 52t-22 77.5q0 55 26.5 90t69.5 58q-31 20 -48.5 48t-17.5 66q0 42 18 73t47 51.5t65.5 30.5t73.5 10q29 0 59 -5t57.5 -17t50 -31.5
t36.5 -47.5zM362 194q18 10 32 30t14 40q0 19 -7.5 32t-19 23t-26 17.5t-28.5 15.5l-89 42q-24 -11 -41 -26t-17 -44q0 -18 8 -31.5t20.5 -23t27.5 -17t29 -13.5z" />
    <glyph glyph-name="dieresis" unicode="&#xa8;" horiz-adv-x="260" 
d="M-50 636q0 29 21.5 50.5t54.5 21.5t55.5 -20.5t22.5 -51.5t-22.5 -51.5t-55.5 -20.5t-54.5 21.5t-21.5 50.5zM156 636q0 29 21.5 50.5t54.5 21.5t55.5 -20.5t22.5 -51.5t-22.5 -51.5t-55.5 -20.5t-54.5 21.5t-21.5 50.5z" />
    <glyph glyph-name="copyright" unicode="&#xa9;" horiz-adv-x="800" 
d="M588 297q-5 -38 -21.5 -66.5t-40.5 -48t-54 -29.5t-62 -10q-47 0 -84 16.5t-62.5 45.5t-39 68t-13.5 84q0 46 13 84.5t37.5 66.5t61.5 43.5t85 15.5q68 0 118 -36t62 -109h-94q-7 35 -29 48t-49 13q-58 0 -83.5 -35t-25.5 -89q0 -57 27.5 -94.5t79.5 -37.5q32 0 55 15.5
t25 54.5h94zM28 354q0 76 29.5 144t80 118.5t118 80t144.5 29.5q76 0 144 -29.5t118.5 -80t80 -118.5t29.5 -144q0 -77 -29.5 -144.5t-80 -118t-118.5 -80t-144 -29.5q-77 0 -144.5 29.5t-118 80t-80 118t-29.5 144.5zM124 354q0 -60 21.5 -112.5t58.5 -91.5t87.5 -61.5
t108.5 -22.5t108.5 22.5t87.5 61.5t58.5 91.5t21.5 112.5t-21.5 112.5t-58.5 91.5t-87.5 61.5t-108.5 22.5t-108.5 -22.5t-87.5 -61.5t-58.5 -91.5t-21.5 -112.5z" />
    <glyph glyph-name="ordfeminine" unicode="&#xaa;" horiz-adv-x="349" 
d="M243 470h-2q-15 -25 -44.5 -35t-58.5 -10q-13 0 -31.5 3.5t-36 13t-30 27t-12.5 44.5q0 35 20 55t49.5 30t64 12.5t64.5 2.5h17v8q0 17 -20 25t-49 8q-25 0 -45 -8.5t-38 -23.5l-43 53q26 23 62 34t76 11q72 0 103.5 -29.5t31.5 -90.5v-169h-78v39zM211 553q-12 0 -29 -1
t-32.5 -5t-26.5 -11t-11 -20q0 -15 15.5 -23t34.5 -8q43 0 60 17.5t17 44.5v6h-28z" />
    <glyph glyph-name="guillemotleft" unicode="&#xab;" horiz-adv-x="519" 
d="M142 248l116 -175l-76 -51l-152 226l152 224l75 -51zM365 248l116 -175l-76 -51l-152 226l152 224l75 -51z" />
    <glyph glyph-name="logicalnot" unicode="&#xac;" horiz-adv-x="666" 
d="M502 342h-440v102h542v-297h-102v195z" />
    <glyph glyph-name="registered" unicode="&#xae;" horiz-adv-x="800" 
d="M257 553h125q34 0 65.5 -5t56 -17.5t39.5 -35t15 -57.5q0 -26 -8 -47t-20.5 -37t-28 -25t-31.5 -11l100 -155h-105l-89 150h-23v-150h-96v390zM352 391h47q9 0 20 1t20.5 5t16 12.5t6.5 23.5t-6.5 23.5t-16 12.5t-20.5 5t-20 1h-47v-84zM28 354q0 76 29.5 144t80 118.5
t118 80t144.5 29.5q76 0 144 -29.5t118.5 -80t80 -118.5t29.5 -144q0 -77 -29.5 -144.5t-80 -118t-118.5 -80t-144 -29.5q-77 0 -144.5 29.5t-118 80t-80 118t-29.5 144.5zM124 354q0 -60 21.5 -112.5t58.5 -91.5t87.5 -61.5t108.5 -22.5t108.5 22.5t87.5 61.5t58.5 91.5
t21.5 112.5t-21.5 112.5t-58.5 91.5t-87.5 61.5t-108.5 22.5t-108.5 -22.5t-87.5 -61.5t-58.5 -91.5t-21.5 -112.5z" />
    <glyph glyph-name="macron" unicode="&#xaf;" horiz-adv-x="260" 
d="M290 595h-320v78h320v-78z" />
    <glyph glyph-name="macron" unicode="&#x2c9;" horiz-adv-x="260" 
d="M290 595h-320v78h320v-78z" />
    <glyph glyph-name="degree" unicode="&#xb0;" horiz-adv-x="400" 
d="M40 560q0 33 12.5 62t34.5 51t51 34.5t62 12.5t62 -12.5t51 -34.5t34.5 -51t12.5 -62t-12.5 -62t-34.5 -51t-51 -34.5t-62 -12.5t-62 12.5t-51 34.5t-34.5 51t-12.5 62zM118 560q0 -34 24 -58t58 -24t58 24t24 58t-24 58t-58 24t-58 -24t-24 -58z" />
    <glyph glyph-name="plusminus" unicode="&#xb1;" horiz-adv-x="666" 
d="M283 574h102v-143h219v-102h-219v-143h-102v143h-221v102h221v143zM62 134h542v-102h-542v102z" />
    <glyph glyph-name="twosuperior" unicode="&#xb2;" horiz-adv-x="385" 
d="M31 384l180 152q14 12 27.5 26t13.5 29q0 21 -16.5 30t-39.5 9q-27 0 -43.5 -15.5t-18.5 -38.5l-96 6q5 72 49.5 105t113.5 33q66 0 109.5 -32t43.5 -96q0 -66 -58 -109l-140 -108v-2h198v-84h-323v95z" />
    <glyph glyph-name="threesuperior" unicode="&#xb3;" horiz-adv-x="385" 
d="M146 552h32q13 0 26 1.5t22.5 6.5t15.5 14t6 23q0 16 -14.5 24.5t-38.5 8.5q-23 0 -39.5 -11.5t-21.5 -32.5l-103 20q7 31 22.5 53t37.5 35.5t48.5 19.5t55.5 6q30 0 58 -7t49.5 -21t34.5 -35.5t13 -50.5q0 -35 -20.5 -60.5t-58.5 -32.5v-2q42 -5 64.5 -34t22.5 -66
q0 -32 -13.5 -56t-36 -40t-52.5 -24t-64 -8q-63 0 -107 27t-58 91l103 22q5 -23 20 -36.5t42 -13.5t45.5 11t18.5 37q0 17 -7.5 26.5t-19.5 14t-28 5.5t-32 1h-23v84z" />
    <glyph glyph-name="acute" unicode="&#xb4;" horiz-adv-x="260" 
d="M182 708h136l-141 -144h-94z" />
    <glyph glyph-name="uni00B5" unicode="&#xb5;" horiz-adv-x="574" 
d="M188 480v-243q0 -20 2 -44.5t10.5 -46t26 -36t49.5 -14.5q30 0 50.5 10t34 27t19.5 39t6 46v262h120v-480h-114v77h-2q-17 -36 -52 -62.5t-95 -26.5q-34 0 -55 7v-223h-120v708h120z" />
    <glyph glyph-name="paragraph" unicode="&#xb6;" horiz-adv-x="600" 
d="M246 338q-49 0 -88.5 13.5t-67.5 38t-43.5 58t-15.5 72.5q0 50 17 86t47.5 58.5t73.5 33t95 10.5h269v-834h-90v762h-107v-762h-90v464z" />
    <glyph glyph-name="periodcentered" unicode="&#xb7;" horiz-adv-x="296" 
d="M68 291q0 32 23.5 55t56.5 23q32 0 56 -22t24 -54t-23.5 -55t-56.5 -23q-32 0 -56 22t-24 54z" />
    <glyph glyph-name="periodcentered" unicode="&#x2219;" horiz-adv-x="296" 
d="M68 291q0 32 23.5 55t56.5 23q32 0 56 -22t24 -54t-23.5 -55t-56.5 -23q-32 0 -56 22t-24 54z" />
    <glyph glyph-name="cedilla" unicode="&#xb8;" horiz-adv-x="260" 
d="M177 -60q22 0 43.5 -2t39 -10.5t28 -25t10.5 -45.5q0 -27 -13.5 -46t-33.5 -30t-45 -16t-47 -5q-57 0 -106 28l22 46q38 -20 82 -20q8 0 18 2t18.5 6.5t14.5 13t6 20.5q0 20 -17.5 28t-33.5 8q-10 0 -19 -2t-18 -5l-27 25l62 90h58z" />
    <glyph glyph-name="onesuperior" unicode="&#xb9;" horiz-adv-x="385" 
d="M179 606l-84 -75l-55 66l150 117h91v-425h-102v317z" />
    <glyph glyph-name="ordmasculine" unicode="&#xba;" horiz-adv-x="397" 
d="M197 425q-35 0 -65 10.5t-52.5 30t-35.5 46.5t-13 60t13 60t35.5 46.5t52.5 30.5t65 11t66 -11t54 -30.5t36 -46.5t13 -60t-13 -60t-36 -46.5t-54 -30t-66 -10.5zM197 497q21 0 37 7t26.5 18t16 24t5.5 26t-5.5 26.5t-16 24.5t-26.5 18t-37 7t-37 -7t-26.5 -18
t-15.5 -24.5t-5 -26.5t5 -26t15.5 -24t26.5 -18t37 -7z" />
    <glyph glyph-name="guillemotright" unicode="&#xbb;" horiz-adv-x="519" 
d="M377 246l-116 175l76 51l152 -226l-152 -224l-75 51zM154 246l-116 175l76 51l152 -226l-152 -224l-75 51z" />
    <glyph glyph-name="onequarter" unicode="&#xbc;" horiz-adv-x="889" 
d="M168 606l-84 -75l-55 66l150 117h91v-425h-102v317zM705 85h-198v78l188 262h112v-256h53v-84h-53v-85h-102v85zM705 303l-1 2l-95 -136h96v134zM600 740l83 -38l-416 -734l-83 38z" />
    <glyph glyph-name="onehalf" unicode="&#xbd;" horiz-adv-x="889" 
d="M171 606l-84 -75l-55 66l150 117h91v-425h-102v317zM535 95l179 152q14 12 27.5 26t13.5 29q0 21 -16.5 30t-39.5 9q-27 0 -43.5 -15.5t-18.5 -38.5l-96 6q5 72 49.5 105t113.5 33q66 0 109.5 -32t43.5 -96q0 -66 -58 -109l-140 -108v-2h198v-84h-322v95zM602 740l83 -38
l-416 -734l-83 38z" />
    <glyph glyph-name="threequarters" unicode="&#xbe;" horiz-adv-x="889" 
d="M715 335h-2l-118 -176v-2h120v178zM142 552h32q13 0 26 1.5t22.5 6.5t15.5 14t6 23q0 16 -14.5 24.5t-38.5 8.5q-23 0 -39.5 -11.5t-21.5 -32.5l-103 20q7 31 22.5 53t37.5 35.5t48.5 19.5t55.5 6q30 0 58 -7t49.5 -21t34.5 -35.5t13 -50.5q0 -35 -20.5 -60.5
t-58.5 -32.5v-2q42 -5 64.5 -34t22.5 -66q0 -32 -13.5 -56t-36 -40t-52.5 -24t-64 -8q-63 0 -107 27t-58 91l103 22q5 -23 20 -36.5t42 -13.5t45.5 11t18.5 37q0 17 -7.5 26.5t-19.5 14t-28 5.5t-32 1h-23v84zM712 85h-198v78l188 262h112v-256h52v-84h-52v-85h-102v85z
M627 740l83 -38l-416 -734l-83 38z" />
    <glyph glyph-name="questiondown" unicode="&#xbf;" horiz-adv-x="519" 
d="M309 277v-55q0 -23 -3 -38.5t-9 -27.5t-16.5 -23.5t-25.5 -27.5l-77 -78q-25 -25 -25 -65q0 -39 25.5 -63.5t64.5 -24.5q42 0 69 28t31 70l128 -10q-12 -97 -74 -149.5t-159 -52.5q-45 0 -83.5 12.5t-67 37.5t-44.5 61.5t-16 83.5q0 33 9 58t24 46t34.5 40t41.5 40
q14 13 24 23t16.5 20.5t9.5 23.5t3 33v38h120zM329 416q0 -32 -23.5 -55t-56.5 -23q-32 0 -56 22t-24 54t23.5 55t56.5 23q32 0 56 -22t24 -54z" />
    <glyph glyph-name="Agrave" unicode="&#xc0;" horiz-adv-x="722" 
d="M308 708h109l305 -708h-144l-66 162h-307l-64 -162h-141zM468 270l-109 288l-111 -288h220zM408 756h-94l-141 144h136z" />
    <glyph glyph-name="Aacute" unicode="&#xc1;" horiz-adv-x="722" 
d="M308 708h109l305 -708h-144l-66 162h-307l-64 -162h-141zM468 270l-109 288l-111 -288h220zM413 900h136l-141 -144h-94z" />
    <glyph glyph-name="Acircumflex" unicode="&#xc2;" horiz-adv-x="722" 
d="M308 708h109l305 -708h-144l-66 162h-307l-64 -162h-141zM468 270l-109 288l-111 -288h220zM429 756l-69 90l-69 -90h-112l115 144h135l114 -144h-114z" />
    <glyph glyph-name="Atilde" unicode="&#xc3;" horiz-adv-x="722" 
d="M308 708h109l305 -708h-144l-66 162h-307l-64 -162h-141zM468 270l-109 288l-111 -288h220zM177 760q4 24 11.5 47t20.5 40.5t32.5 28.5t47.5 11q20 0 40.5 -6t39.5 -12.5t35.5 -12.5t28.5 -6q20 0 30.5 12.5t15.5 29.5h66q-4 -24 -11.5 -47t-20.5 -40.5t-32.5 -28.5
t-47.5 -11q-20 0 -40.5 6t-39.5 13t-35.5 13t-28.5 6q-20 0 -30.5 -13t-15.5 -30h-66z" />
    <glyph glyph-name="Adieresis" unicode="&#xc4;" horiz-adv-x="722" 
d="M308 708h109l305 -708h-144l-66 162h-307l-64 -162h-141zM468 270l-109 288l-111 -288h220zM181 828q0 29 21.5 50.5t54.5 21.5t55.5 -20.5t22.5 -51.5t-22.5 -51.5t-55.5 -20.5t-54.5 21.5t-21.5 50.5zM387 828q0 29 21.5 50.5t54.5 21.5t55.5 -20.5t22.5 -51.5
t-22.5 -51.5t-55.5 -20.5t-54.5 21.5t-21.5 50.5z" />
    <glyph glyph-name="Aring" unicode="&#xc5;" horiz-adv-x="722" 
d="M308 708h109l305 -708h-144l-66 162h-307l-64 -162h-141zM468 270l-109 288l-111 -288h220zM466 837q0 -45 -30 -73.5t-75 -28.5t-75 28t-30 73q0 22 8 41t22 32.5t33 21.5t42 8q45 0 75 -28.5t30 -73.5zM418 837q0 23 -17 38.5t-40 15.5t-40 -15.5t-17 -38.5t17 -38.5
t40 -15.5t40 15t17 39z" />
    <glyph glyph-name="AE" unicode="&#xc6;" horiz-adv-x="1000" 
d="M529 186h-268l-114 -186h-153l453 708h496v-114h-288v-174h270v-114h-270v-192h300v-114h-426v186zM529 294v300h-15l-187 -300h202z" />
    <glyph glyph-name="Ccedilla" unicode="&#xc7;" horiz-adv-x="685" 
d="M565 542q-39 42 -75.5 56t-73.5 14q-55 0 -99.5 -19.5t-76.5 -54t-49.5 -80.5t-17.5 -99q0 -57 17.5 -105t49.5 -83t76.5 -55t99.5 -20q43 0 83.5 20.5t75.5 65.5l104 -74q-48 -66 -115 -95.5t-145 -30.5l-29 -42q22 0 43.5 -2t39 -10.5t28 -25t10.5 -45.5
q0 -27 -13.5 -46t-33.5 -30t-45 -16t-47 -5q-57 0 -106 28l22 46q38 -20 82 -20q8 0 18 2t18.5 6.5t14.5 13t6 20.5q0 20 -17.5 28t-33.5 8q-10 0 -19 -2t-18 -5l-27 25l51 75q-72 8 -131 37.5t-101.5 77.5t-66 111.5t-23.5 139.5q0 85 28 154.5t77.5 118.5t118 75.5
t150.5 26.5q72 0 133 -25.5t115 -86.5z" />
    <glyph glyph-name="Egrave" unicode="&#xc8;" horiz-adv-x="611" 
d="M79 708h469v-114h-343v-174h325v-114h-325v-192h361v-114h-487v708zM353 756h-94l-141 144h136z" />
    <glyph glyph-name="Eacute" unicode="&#xc9;" horiz-adv-x="611" 
d="M79 708h469v-114h-343v-174h325v-114h-325v-192h361v-114h-487v708zM358 900h136l-141 -144h-94z" />
    <glyph glyph-name="Ecircumflex" unicode="&#xca;" horiz-adv-x="611" 
d="M79 708h469v-114h-343v-174h325v-114h-325v-192h361v-114h-487v708zM374 756l-69 90l-69 -90h-112l115 144h135l114 -144h-114z" />
    <glyph glyph-name="Edieresis" unicode="&#xcb;" horiz-adv-x="611" 
d="M79 708h469v-114h-343v-174h325v-114h-325v-192h361v-114h-487v708zM126 828q0 29 21.5 50.5t54.5 21.5t55.5 -20.5t22.5 -51.5t-22.5 -51.5t-55.5 -20.5t-54.5 21.5t-21.5 50.5zM332 828q0 29 21.5 50.5t54.5 21.5t55.5 -20.5t22.5 -51.5t-22.5 -51.5t-55.5 -20.5
t-54.5 21.5t-21.5 50.5z" />
    <glyph glyph-name="Igrave" unicode="&#xcc;" horiz-adv-x="278" 
d="M76 708h126v-708h-126v708zM186 756h-94l-141 144h136z" />
    <glyph glyph-name="Iacute" unicode="&#xcd;" horiz-adv-x="278" 
d="M76 708h126v-708h-126v708zM191 900h136l-141 -144h-94z" />
    <glyph glyph-name="Icircumflex" unicode="&#xce;" horiz-adv-x="278" 
d="M76 708h126v-708h-126v708zM207 756l-69 90l-69 -90h-112l115 144h135l114 -144h-114z" />
    <glyph glyph-name="Idieresis" unicode="&#xcf;" horiz-adv-x="278" 
d="M76 708h126v-708h-126v708zM-41 828q0 29 21.5 50.5t54.5 21.5t55.5 -20.5t22.5 -51.5t-22.5 -51.5t-55.5 -20.5t-54.5 21.5t-21.5 50.5zM165 828q0 29 21.5 50.5t54.5 21.5t55.5 -20.5t22.5 -51.5t-22.5 -51.5t-55.5 -20.5t-54.5 21.5t-21.5 50.5z" />
    <glyph glyph-name="Eth" unicode="&#xd0;" horiz-adv-x="759" 
d="M79 324h-66v84h66v300h279q70 0 135 -21.5t115 -65.5t80 -110.5t30 -156.5q0 -91 -34.5 -157.5t-89 -110t-121 -65t-130.5 -21.5h-264v324zM299 114q59 0 111.5 13.5t91.5 42t61.5 74t22.5 110.5q0 64 -20 110t-55.5 74.5t-84 42t-106.5 13.5h-115v-186h216v-84h-216
v-210h94z" />
    <glyph glyph-name="Ntilde" unicode="&#xd1;" horiz-adv-x="796" 
d="M79 708h167l343 -526h2v526h126v-708h-160l-350 543h-2v-543h-126v708zM214 760q4 24 11.5 47t20.5 40.5t32.5 28.5t47.5 11q20 0 40.5 -6t39.5 -12.5t35.5 -12.5t28.5 -6q20 0 30.5 12.5t15.5 29.5h66q-4 -24 -11.5 -47t-20.5 -40.5t-32.5 -28.5t-47.5 -11
q-20 0 -40.5 6t-39.5 13t-35.5 13t-28.5 6q-20 0 -30.5 -13t-15.5 -30h-66z" />
    <glyph glyph-name="Ograve" unicode="&#xd2;" horiz-adv-x="833" 
d="M41 351q0 85 28 154.5t77.5 118.5t118 75.5t150.5 26.5t151.5 -26t119.5 -74.5t78 -117t28 -153.5q0 -83 -28 -151.5t-78 -118t-119.5 -76.5t-151.5 -27t-150.5 26.5t-118 75t-77.5 116.5t-28 151zM173 359q0 -57 17.5 -105t49.5 -83t76.5 -55t99.5 -20t100 20t77 55
t49.5 83t17.5 105q0 53 -17.5 99t-49.5 80.5t-77 54t-100 19.5t-99.5 -19.5t-76.5 -54t-49.5 -80.5t-17.5 -99zM464 756h-94l-141 144h136z" />
    <glyph glyph-name="Oacute" unicode="&#xd3;" horiz-adv-x="833" 
d="M41 351q0 85 28 154.5t77.5 118.5t118 75.5t150.5 26.5t151.5 -26t119.5 -74.5t78 -117t28 -153.5q0 -83 -28 -151.5t-78 -118t-119.5 -76.5t-151.5 -27t-150.5 26.5t-118 75t-77.5 116.5t-28 151zM173 359q0 -57 17.5 -105t49.5 -83t76.5 -55t99.5 -20t100 20t77 55
t49.5 83t17.5 105q0 53 -17.5 99t-49.5 80.5t-77 54t-100 19.5t-99.5 -19.5t-76.5 -54t-49.5 -80.5t-17.5 -99zM469 900h136l-141 -144h-94z" />
    <glyph glyph-name="Ocircumflex" unicode="&#xd4;" horiz-adv-x="833" 
d="M41 351q0 85 28 154.5t77.5 118.5t118 75.5t150.5 26.5t151.5 -26t119.5 -74.5t78 -117t28 -153.5q0 -83 -28 -151.5t-78 -118t-119.5 -76.5t-151.5 -27t-150.5 26.5t-118 75t-77.5 116.5t-28 151zM173 359q0 -57 17.5 -105t49.5 -83t76.5 -55t99.5 -20t100 20t77 55
t49.5 83t17.5 105q0 53 -17.5 99t-49.5 80.5t-77 54t-100 19.5t-99.5 -19.5t-76.5 -54t-49.5 -80.5t-17.5 -99zM485 756l-69 90l-69 -90h-112l115 144h135l114 -144h-114z" />
    <glyph glyph-name="Otilde" unicode="&#xd5;" horiz-adv-x="833" 
d="M41 351q0 85 28 154.5t77.5 118.5t118 75.5t150.5 26.5t151.5 -26t119.5 -74.5t78 -117t28 -153.5q0 -83 -28 -151.5t-78 -118t-119.5 -76.5t-151.5 -27t-150.5 26.5t-118 75t-77.5 116.5t-28 151zM173 359q0 -57 17.5 -105t49.5 -83t76.5 -55t99.5 -20t100 20t77 55
t49.5 83t17.5 105q0 53 -17.5 99t-49.5 80.5t-77 54t-100 19.5t-99.5 -19.5t-76.5 -54t-49.5 -80.5t-17.5 -99zM233 760q4 24 11.5 47t20.5 40.5t32.5 28.5t47.5 11q20 0 40.5 -6t39.5 -12.5t35.5 -12.5t28.5 -6q20 0 30.5 12.5t15.5 29.5h66q-4 -24 -11.5 -47t-20.5 -40.5
t-32.5 -28.5t-47.5 -11q-20 0 -40.5 6t-39.5 13t-35.5 13t-28.5 6q-20 0 -30.5 -13t-15.5 -30h-66z" />
    <glyph glyph-name="Odieresis" unicode="&#xd6;" horiz-adv-x="833" 
d="M41 351q0 85 28 154.5t77.5 118.5t118 75.5t150.5 26.5t151.5 -26t119.5 -74.5t78 -117t28 -153.5q0 -83 -28 -151.5t-78 -118t-119.5 -76.5t-151.5 -27t-150.5 26.5t-118 75t-77.5 116.5t-28 151zM173 359q0 -57 17.5 -105t49.5 -83t76.5 -55t99.5 -20t100 20t77 55
t49.5 83t17.5 105q0 53 -17.5 99t-49.5 80.5t-77 54t-100 19.5t-99.5 -19.5t-76.5 -54t-49.5 -80.5t-17.5 -99zM237 828q0 29 21.5 50.5t54.5 21.5t55.5 -20.5t22.5 -51.5t-22.5 -51.5t-55.5 -20.5t-54.5 21.5t-21.5 50.5zM443 828q0 29 21.5 50.5t54.5 21.5t55.5 -20.5
t22.5 -51.5t-22.5 -51.5t-55.5 -20.5t-54.5 21.5t-21.5 50.5z" />
    <glyph glyph-name="multiply" unicode="&#xd7;" horiz-adv-x="666" 
d="M333 374l182 182l70 -70l-181 -181l185 -186l-74 -74l-183 181l-181 -181l-74 73l185 182l-184 186l72 71z" />
    <glyph glyph-name="Oslash" unicode="&#xd8;" horiz-adv-x="833" 
d="M559 567q-62 45 -143 45q-55 0 -99.5 -19.5t-76.5 -54t-49.5 -80.5t-17.5 -99q0 -48 12 -88.5t34 -73.5zM264 148q31 -25 69 -38.5t83 -13.5q55 0 100 20t77 55t49.5 83t17.5 105q0 97 -54 162zM781 712l-86 -94q48 -49 72.5 -115.5t24.5 -147.5q0 -83 -28 -151t-78 -117
t-119.5 -76.5t-151.5 -28.5q-69 0 -128.5 19.5t-107.5 54.5l-85 -92l-50 43l87 94q-43 48 -66.5 111t-23.5 139q0 85 28 154.5t77.5 118.5t118 75.5t150.5 26.5q67 2 124.5 -15.5t105.5 -49.5l87 94z" />
    <glyph glyph-name="Ugrave" unicode="&#xd9;" horiz-adv-x="722" 
d="M646 260q0 -64 -22 -115.5t-60 -87.5t-90 -55.5t-113 -19.5t-113 19.5t-90.5 55.5t-60 87.5t-21.5 115.5v448h126v-444q0 -26 8 -54.5t26.5 -52.5t49 -39.5t75.5 -15.5t75.5 15.5t49 39.5t26.5 52.5t8 54.5v444h126v-448zM408 756h-94l-141 144h136z" />
    <glyph glyph-name="Uacute" unicode="&#xda;" horiz-adv-x="722" 
d="M646 260q0 -64 -22 -115.5t-60 -87.5t-90 -55.5t-113 -19.5t-113 19.5t-90.5 55.5t-60 87.5t-21.5 115.5v448h126v-444q0 -26 8 -54.5t26.5 -52.5t49 -39.5t75.5 -15.5t75.5 15.5t49 39.5t26.5 52.5t8 54.5v444h126v-448zM413 900h136l-141 -144h-94z" />
    <glyph glyph-name="Ucircumflex" unicode="&#xdb;" horiz-adv-x="722" 
d="M646 260q0 -64 -22 -115.5t-60 -87.5t-90 -55.5t-113 -19.5t-113 19.5t-90.5 55.5t-60 87.5t-21.5 115.5v448h126v-444q0 -26 8 -54.5t26.5 -52.5t49 -39.5t75.5 -15.5t75.5 15.5t49 39.5t26.5 52.5t8 54.5v444h126v-448zM429 756l-69 90l-69 -90h-112l115 144h135
l114 -144h-114z" />
    <glyph glyph-name="Udieresis" unicode="&#xdc;" horiz-adv-x="722" 
d="M646 260q0 -64 -22 -115.5t-60 -87.5t-90 -55.5t-113 -19.5t-113 19.5t-90.5 55.5t-60 87.5t-21.5 115.5v448h126v-444q0 -26 8 -54.5t26.5 -52.5t49 -39.5t75.5 -15.5t75.5 15.5t49 39.5t26.5 52.5t8 54.5v444h126v-448zM181 828q0 29 21.5 50.5t54.5 21.5t55.5 -20.5
t22.5 -51.5t-22.5 -51.5t-55.5 -20.5t-54.5 21.5t-21.5 50.5zM387 828q0 29 21.5 50.5t54.5 21.5t55.5 -20.5t22.5 -51.5t-22.5 -51.5t-55.5 -20.5t-54.5 21.5t-21.5 50.5z" />
    <glyph glyph-name="Yacute" unicode="&#xdd;" horiz-adv-x="630" 
d="M252 303l-266 405h158l174 -282l176 282h150l-266 -405v-303h-126v303zM367 900h136l-141 -144h-94z" />
    <glyph glyph-name="Thorn" unicode="&#xde;" horiz-adv-x="611" 
d="M79 708h126v-137h112q51 0 98.5 -10t83.5 -33.5t57.5 -63t21.5 -98.5q0 -67 -23 -108t-62 -63.5t-90.5 -30.5t-107.5 -8h-90v-156h-126v708zM281 264q27 0 56 2t53.5 12t40 30t15.5 56q0 33 -14 52.5t-36 30t-49 13.5t-52 3h-90v-199h76z" />
    <glyph glyph-name="germandbls" unicode="&#xdf;" horiz-adv-x="611" 
d="M56 511q0 136 59.5 196.5t180.5 60.5q43 0 82.5 -11.5t69.5 -35t47.5 -58t17.5 -80.5q0 -55 -27.5 -96t-78.5 -62v-2q40 -5 70 -23t50 -45.5t30 -62.5t10 -74q0 -51 -17.5 -93.5t-48.5 -73t-74.5 -47t-94.5 -16.5q-21 0 -42 2.5t-42 8.5v101q14 -6 27 -8t28 -2
q63 0 103.5 37t40.5 101q0 72 -42.5 107.5t-109.5 35.5h-14v102h8q45 0 74.5 24.5t29.5 69.5q0 42 -29.5 67.5t-71.5 25.5q-60 0 -88 -34.5t-28 -86.5v-539h-120v511z" />
    <glyph glyph-name="agrave" unicode="&#xe0;" horiz-adv-x="537" 
d="M368 66h-3q-26 -42 -66 -60t-88 -18q-33 0 -64.5 9t-56 27t-39.5 45t-15 63q0 39 14 66.5t37.5 46t54.5 29.5t64.5 16.5t67.5 7t64 1.5h30v13q0 45 -31 67.5t-79 22.5q-38 0 -71 -13.5t-57 -36.5l-63 63q40 42 93.5 59.5t110.5 17.5q51 0 86 -11.5t58 -29.5t35.5 -41.5
t18 -47.5t6.5 -46.5t1 -39.5v-276h-108v66zM361 215h-25q-25 0 -56 -2t-58.5 -9.5t-46.5 -22.5t-19 -40q0 -17 7.5 -28.5t19.5 -19.5t27 -11.5t30 -3.5q63 0 92 29.5t29 80.5v27zM316 564h-94l-141 144h136z" />
    <glyph glyph-name="aacute" unicode="&#xe1;" horiz-adv-x="537" 
d="M368 66h-3q-26 -42 -66 -60t-88 -18q-33 0 -64.5 9t-56 27t-39.5 45t-15 63q0 39 14 66.5t37.5 46t54.5 29.5t64.5 16.5t67.5 7t64 1.5h30v13q0 45 -31 67.5t-79 22.5q-38 0 -71 -13.5t-57 -36.5l-63 63q40 42 93.5 59.5t110.5 17.5q51 0 86 -11.5t58 -29.5t35.5 -41.5
t18 -47.5t6.5 -46.5t1 -39.5v-276h-108v66zM361 215h-25q-25 0 -56 -2t-58.5 -9.5t-46.5 -22.5t-19 -40q0 -17 7.5 -28.5t19.5 -19.5t27 -11.5t30 -3.5q63 0 92 29.5t29 80.5v27zM321 708h136l-141 -144h-94z" />
    <glyph glyph-name="acircumflex" unicode="&#xe2;" horiz-adv-x="537" 
d="M368 66h-3q-26 -42 -66 -60t-88 -18q-33 0 -64.5 9t-56 27t-39.5 45t-15 63q0 39 14 66.5t37.5 46t54.5 29.5t64.5 16.5t67.5 7t64 1.5h30v13q0 45 -31 67.5t-79 22.5q-38 0 -71 -13.5t-57 -36.5l-63 63q40 42 93.5 59.5t110.5 17.5q51 0 86 -11.5t58 -29.5t35.5 -41.5
t18 -47.5t6.5 -46.5t1 -39.5v-276h-108v66zM361 215h-25q-25 0 -56 -2t-58.5 -9.5t-46.5 -22.5t-19 -40q0 -17 7.5 -28.5t19.5 -19.5t27 -11.5t30 -3.5q63 0 92 29.5t29 80.5v27zM337 564l-69 90l-69 -90h-112l115 144h135l114 -144h-114z" />
    <glyph glyph-name="atilde" unicode="&#xe3;" horiz-adv-x="537" 
d="M368 66h-3q-26 -42 -66 -60t-88 -18q-33 0 -64.5 9t-56 27t-39.5 45t-15 63q0 39 14 66.5t37.5 46t54.5 29.5t64.5 16.5t67.5 7t64 1.5h30v13q0 45 -31 67.5t-79 22.5q-38 0 -71 -13.5t-57 -36.5l-63 63q40 42 93.5 59.5t110.5 17.5q51 0 86 -11.5t58 -29.5t35.5 -41.5
t18 -47.5t6.5 -46.5t1 -39.5v-276h-108v66zM361 215h-25q-25 0 -56 -2t-58.5 -9.5t-46.5 -22.5t-19 -40q0 -17 7.5 -28.5t19.5 -19.5t27 -11.5t30 -3.5q63 0 92 29.5t29 80.5v27zM85 568q4 24 11.5 47t20.5 40.5t32.5 28.5t47.5 11q20 0 40.5 -6t39.5 -12.5t35.5 -12.5
t28.5 -6q20 0 30.5 12.5t15.5 29.5h66q-4 -24 -11.5 -47t-20.5 -40.5t-32.5 -28.5t-47.5 -11q-20 0 -40.5 6t-39.5 13t-35.5 13t-28.5 6q-20 0 -30.5 -13t-15.5 -30h-66z" />
    <glyph glyph-name="adieresis" unicode="&#xe4;" horiz-adv-x="537" 
d="M368 66h-3q-26 -42 -66 -60t-88 -18q-33 0 -64.5 9t-56 27t-39.5 45t-15 63q0 39 14 66.5t37.5 46t54.5 29.5t64.5 16.5t67.5 7t64 1.5h30v13q0 45 -31 67.5t-79 22.5q-38 0 -71 -13.5t-57 -36.5l-63 63q40 42 93.5 59.5t110.5 17.5q51 0 86 -11.5t58 -29.5t35.5 -41.5
t18 -47.5t6.5 -46.5t1 -39.5v-276h-108v66zM361 215h-25q-25 0 -56 -2t-58.5 -9.5t-46.5 -22.5t-19 -40q0 -17 7.5 -28.5t19.5 -19.5t27 -11.5t30 -3.5q63 0 92 29.5t29 80.5v27zM89 636q0 29 21.5 50.5t54.5 21.5t55.5 -20.5t22.5 -51.5t-22.5 -51.5t-55.5 -20.5
t-54.5 21.5t-21.5 50.5zM295 636q0 29 21.5 50.5t54.5 21.5t55.5 -20.5t22.5 -51.5t-22.5 -51.5t-55.5 -20.5t-54.5 21.5t-21.5 50.5z" />
    <glyph glyph-name="aring" unicode="&#xe5;" horiz-adv-x="537" 
d="M368 66h-3q-26 -42 -66 -60t-88 -18q-33 0 -64.5 9t-56 27t-39.5 45t-15 63q0 39 14 66.5t37.5 46t54.5 29.5t64.5 16.5t67.5 7t64 1.5h30v13q0 45 -31 67.5t-79 22.5q-38 0 -71 -13.5t-57 -36.5l-63 63q40 42 93.5 59.5t110.5 17.5q51 0 86 -11.5t58 -29.5t35.5 -41.5
t18 -47.5t6.5 -46.5t1 -39.5v-276h-108v66zM361 215h-25q-25 0 -56 -2t-58.5 -9.5t-46.5 -22.5t-19 -40q0 -17 7.5 -28.5t19.5 -19.5t27 -11.5t30 -3.5q63 0 92 29.5t29 80.5v27zM374 655q0 -45 -30 -73.5t-75 -28.5t-75 28t-30 73q0 22 8 41t22 32.5t33 21.5t42 8
q45 0 75 -28.5t30 -73.5zM326 655q0 23 -17 38.5t-40 15.5t-40 -15.5t-17 -38.5t17 -38.5t40 -15.5t40 15t17 39z" />
    <glyph glyph-name="ae" unicode="&#xe6;" horiz-adv-x="852" 
d="M816 204h-350q0 -30 11 -53.5t28.5 -39.5t38 -24.5t39.5 -8.5q45 0 75 18.5t53 46.5l83 -59q-40 -51 -92.5 -73.5t-118.5 -22.5q-61 0 -107 25t-72 61q-32 -49 -82.5 -67t-110.5 -18q-32 0 -63.5 8.5t-56 26t-40 44.5t-15.5 65q0 85 60 120t172 35h98q0 54 -27 84.5
t-81 30.5q-38 0 -71 -13.5t-57 -36.5l-63 63q40 42 93.5 59.5t110.5 17.5q42 0 86 -16.5t73 -54.5q29 32 66 51t89 19q58 0 101.5 -20t72.5 -54.5t43 -81t14 -99.5v-33zM239 79q30 0 54 10t40 25.5t24.5 36t8.5 41.5v12h-60q-25 0 -51.5 -2.5t-48.5 -9t-36 -19t-14 -32.5
q0 -17 8.5 -29t21 -19.5t27 -10.5t26.5 -3zM700 288q-3 51 -32.5 82.5t-83.5 31.5q-51 0 -82 -31.5t-34 -82.5h232z" />
    <glyph glyph-name="ccedilla" unicode="&#xe7;" horiz-adv-x="482" 
d="M396 336q-21 22 -44 35t-47 13q-33 0 -59 -12t-44.5 -32t-28 -46t-9.5 -54t9.5 -54t28 -46t44.5 -32t59 -12q57 0 93 45l80 -86q-18 -18 -41 -30.5t-46.5 -21t-45.5 -12t-38 -3.5l-34 -48q22 0 43.5 -2t39 -10.5t28 -25t10.5 -45.5q0 -27 -13.5 -46t-33.5 -30t-45 -16
t-47 -5q-57 0 -106 28l22 46q38 -20 82 -20q8 0 18 2t18.5 6.5t14.5 13t6 20.5q0 20 -17.5 28t-33.5 8q-10 0 -19 -2t-18 -5l-27 25l57 83q-45 8 -83 29t-65.5 53t-43.5 73.5t-16 91.5q0 57 20.5 103.5t55.5 79.5t83 51t102 18q46 0 92.5 -17.5t81.5 -55.5z" />
    <glyph glyph-name="egrave" unicode="&#xe8;" horiz-adv-x="574" 
d="M164 198q6 -54 42 -84t87 -30q45 0 75.5 18.5t53.5 46.5l86 -65q-42 -52 -94 -74t-109 -22q-54 0 -102 18t-83 51t-55.5 79.5t-20.5 103.5t20.5 103.5t55.5 79.5t83 51t102 18q50 0 91.5 -17.5t71 -50.5t46 -81.5t16.5 -111.5v-33h-366zM410 288q-1 54 -33 84t-89 30
q-54 0 -85.5 -31t-38.5 -83h246zM334 564h-94l-141 144h136z" />
    <glyph glyph-name="eacute" unicode="&#xe9;" horiz-adv-x="574" 
d="M164 198q6 -54 42 -84t87 -30q45 0 75.5 18.5t53.5 46.5l86 -65q-42 -52 -94 -74t-109 -22q-54 0 -102 18t-83 51t-55.5 79.5t-20.5 103.5t20.5 103.5t55.5 79.5t83 51t102 18q50 0 91.5 -17.5t71 -50.5t46 -81.5t16.5 -111.5v-33h-366zM410 288q-1 54 -33 84t-89 30
q-54 0 -85.5 -31t-38.5 -83h246zM339 708h136l-141 -144h-94z" />
    <glyph glyph-name="ecircumflex" unicode="&#xea;" horiz-adv-x="574" 
d="M164 198q6 -54 42 -84t87 -30q45 0 75.5 18.5t53.5 46.5l86 -65q-42 -52 -94 -74t-109 -22q-54 0 -102 18t-83 51t-55.5 79.5t-20.5 103.5t20.5 103.5t55.5 79.5t83 51t102 18q50 0 91.5 -17.5t71 -50.5t46 -81.5t16.5 -111.5v-33h-366zM410 288q-1 54 -33 84t-89 30
q-54 0 -85.5 -31t-38.5 -83h246zM355 564l-69 90l-69 -90h-112l115 144h135l114 -144h-114z" />
    <glyph glyph-name="edieresis" unicode="&#xeb;" horiz-adv-x="574" 
d="M164 198q6 -54 42 -84t87 -30q45 0 75.5 18.5t53.5 46.5l86 -65q-42 -52 -94 -74t-109 -22q-54 0 -102 18t-83 51t-55.5 79.5t-20.5 103.5t20.5 103.5t55.5 79.5t83 51t102 18q50 0 91.5 -17.5t71 -50.5t46 -81.5t16.5 -111.5v-33h-366zM410 288q-1 54 -33 84t-89 30
q-54 0 -85.5 -31t-38.5 -83h246zM107 636q0 29 21.5 50.5t54.5 21.5t55.5 -20.5t22.5 -51.5t-22.5 -51.5t-55.5 -20.5t-54.5 21.5t-21.5 50.5zM313 636q0 29 21.5 50.5t54.5 21.5t55.5 -20.5t22.5 -51.5t-22.5 -51.5t-55.5 -20.5t-54.5 21.5t-21.5 50.5z" />
    <glyph glyph-name="igrave" unicode="&#xec;" horiz-adv-x="260" 
d="M70 480h120v-480h-120v480zM189 564h-94l-141 144h136z" />
    <glyph glyph-name="iacute" unicode="&#xed;" horiz-adv-x="260" 
d="M70 480h120v-480h-120v480zM171 708h136l-141 -144h-94z" />
    <glyph glyph-name="icircumflex" unicode="&#xee;" horiz-adv-x="260" 
d="M70 480h120v-480h-120v480zM198 564l-69 90l-69 -90h-112l115 144h135l114 -144h-114z" />
    <glyph glyph-name="idieresis" unicode="&#xef;" horiz-adv-x="260" 
d="M70 480h120v-480h-120v480zM-50 636q0 29 21.5 50.5t54.5 21.5t55.5 -20.5t22.5 -51.5t-22.5 -51.5t-55.5 -20.5t-54.5 21.5t-21.5 50.5zM156 636q0 29 21.5 50.5t54.5 21.5t55.5 -20.5t22.5 -51.5t-22.5 -51.5t-55.5 -20.5t-54.5 21.5t-21.5 50.5z" />
    <glyph glyph-name="eth" unicode="&#xf0;" horiz-adv-x="610" 
d="M506 712l-117 -54q36 -39 68 -82.5t56.5 -91t38.5 -99.5t14 -108q0 -63 -16.5 -116t-49.5 -91.5t-82 -60t-113 -21.5q-54 0 -102 18t-83 51t-55.5 79.5t-20.5 103.5t20 103.5t54.5 79.5t80 51t96.5 18q33 0 62.5 -8.5t51.5 -29.5l2 2q-26 42 -58.5 79t-67.5 73l-3 3
l-106 -49l-60 57l107 50q-7 7 -17 15.5t-21 17.5t-21.5 17.5t-17.5 14.5l100 58q27 -21 50.5 -42.5t34.5 -32.5l111 51zM305 96q33 0 59 12t44.5 32t28 46t9.5 54t-9.5 54t-28 46t-44.5 32t-59 12t-59 -12t-44.5 -32t-28 -46t-9.5 -54t9.5 -54t28 -46t44.5 -32t59 -12z" />
    <glyph glyph-name="ntilde" unicode="&#xf1;" horiz-adv-x="574" 
d="M68 480h114v-77h2q17 36 52 62.5t95 26.5q48 0 81.5 -16t54.5 -42t30 -60t9 -71v-303h-120v243q0 20 -2 44.5t-10.5 46t-26.5 36t-49 14.5q-30 0 -50.5 -10t-34 -27t-19.5 -39t-6 -46v-262h-120v480zM103 568q4 24 11.5 47t20.5 40.5t32.5 28.5t47.5 11q20 0 40.5 -6
t39.5 -12.5t35.5 -12.5t28.5 -6q20 0 30.5 12.5t15.5 29.5h66q-4 -24 -11.5 -47t-20.5 -40.5t-32.5 -28.5t-47.5 -11q-20 0 -40.5 6t-39.5 13t-35.5 13t-28.5 6q-20 0 -30.5 -13t-15.5 -30h-66z" />
    <glyph glyph-name="ograve" unicode="&#xf2;" horiz-adv-x="610" 
d="M44 240q0 57 20.5 103.5t55.5 79.5t83 51t102 18t102 -18t83 -51t55.5 -79.5t20.5 -103.5t-20.5 -103.5t-55.5 -79.5t-83 -51t-102 -18t-102 18t-83 51t-55.5 79.5t-20.5 103.5zM164 240q0 -28 9.5 -54t28 -46t44.5 -32t59 -12t59 12t44.5 32t28 46t9.5 54t-9.5 54
t-28 46t-44.5 32t-59 12t-59 -12t-44.5 -32t-28 -46t-9.5 -54zM352 564h-94l-141 144h136z" />
    <glyph glyph-name="oacute" unicode="&#xf3;" horiz-adv-x="610" 
d="M44 240q0 57 20.5 103.5t55.5 79.5t83 51t102 18t102 -18t83 -51t55.5 -79.5t20.5 -103.5t-20.5 -103.5t-55.5 -79.5t-83 -51t-102 -18t-102 18t-83 51t-55.5 79.5t-20.5 103.5zM164 240q0 -28 9.5 -54t28 -46t44.5 -32t59 -12t59 12t44.5 32t28 46t9.5 54t-9.5 54
t-28 46t-44.5 32t-59 12t-59 -12t-44.5 -32t-28 -46t-9.5 -54zM357 708h136l-141 -144h-94z" />
    <glyph glyph-name="ocircumflex" unicode="&#xf4;" horiz-adv-x="610" 
d="M44 240q0 57 20.5 103.5t55.5 79.5t83 51t102 18t102 -18t83 -51t55.5 -79.5t20.5 -103.5t-20.5 -103.5t-55.5 -79.5t-83 -51t-102 -18t-102 18t-83 51t-55.5 79.5t-20.5 103.5zM164 240q0 -28 9.5 -54t28 -46t44.5 -32t59 -12t59 12t44.5 32t28 46t9.5 54t-9.5 54
t-28 46t-44.5 32t-59 12t-59 -12t-44.5 -32t-28 -46t-9.5 -54zM373 564l-69 90l-69 -90h-112l115 144h135l114 -144h-114z" />
    <glyph glyph-name="otilde" unicode="&#xf5;" horiz-adv-x="610" 
d="M44 240q0 57 20.5 103.5t55.5 79.5t83 51t102 18t102 -18t83 -51t55.5 -79.5t20.5 -103.5t-20.5 -103.5t-55.5 -79.5t-83 -51t-102 -18t-102 18t-83 51t-55.5 79.5t-20.5 103.5zM164 240q0 -28 9.5 -54t28 -46t44.5 -32t59 -12t59 12t44.5 32t28 46t9.5 54t-9.5 54
t-28 46t-44.5 32t-59 12t-59 -12t-44.5 -32t-28 -46t-9.5 -54zM121 568q4 24 11.5 47t20.5 40.5t32.5 28.5t47.5 11q20 0 40.5 -6t39.5 -12.5t35.5 -12.5t28.5 -6q20 0 30.5 12.5t15.5 29.5h66q-4 -24 -11.5 -47t-20.5 -40.5t-32.5 -28.5t-47.5 -11q-20 0 -40.5 6t-39.5 13
t-35.5 13t-28.5 6q-20 0 -30.5 -13t-15.5 -30h-66z" />
    <glyph glyph-name="odieresis" unicode="&#xf6;" horiz-adv-x="610" 
d="M44 240q0 57 20.5 103.5t55.5 79.5t83 51t102 18t102 -18t83 -51t55.5 -79.5t20.5 -103.5t-20.5 -103.5t-55.5 -79.5t-83 -51t-102 -18t-102 18t-83 51t-55.5 79.5t-20.5 103.5zM164 240q0 -28 9.5 -54t28 -46t44.5 -32t59 -12t59 12t44.5 32t28 46t9.5 54t-9.5 54
t-28 46t-44.5 32t-59 12t-59 -12t-44.5 -32t-28 -46t-9.5 -54zM125 636q0 29 21.5 50.5t54.5 21.5t55.5 -20.5t22.5 -51.5t-22.5 -51.5t-55.5 -20.5t-54.5 21.5t-21.5 50.5zM331 636q0 29 21.5 50.5t54.5 21.5t55.5 -20.5t22.5 -51.5t-22.5 -51.5t-55.5 -20.5t-54.5 21.5
t-21.5 50.5z" />
    <glyph glyph-name="divide" unicode="&#xf7;" horiz-adv-x="666" 
d="M604 354v-102h-542v102h542zM258 483q0 31 22 53t53 22t53 -22t22 -53t-22 -53t-53 -22t-53 22t-22 53zM258 123q0 31 22 53t53 22t53 -22t22 -53t-22 -53t-53 -22t-53 22t-22 53z" />
    <glyph glyph-name="oslash" unicode="&#xf8;" horiz-adv-x="610" 
d="M384 360q-16 11 -36 17.5t-43 6.5q-33 0 -59 -12t-44.5 -32t-28 -46t-9.5 -54q0 -45 23 -80zM227 119q32 -23 78 -23q33 0 59 12t44.5 32t28 46t9.5 54q0 43 -21 78zM579 474l-70 -71q26 -32 41.5 -73t15.5 -90q0 -57 -20.5 -103.5t-55.5 -79.5t-83 -51t-102 -18
q-46 0 -86.5 13t-72.5 36l-70 -71l-40 41l67 68q-28 32 -43.5 73t-15.5 92q0 57 20.5 103.5t55.5 79.5t83 51t102 18q46 0 87 -13t74 -37l71 72z" />
    <glyph glyph-name="ugrave" unicode="&#xf9;" horiz-adv-x="574" 
d="M506 0h-114v77h-2q-17 -36 -52 -62.5t-95 -26.5q-48 0 -81.5 15.5t-54.5 42t-30 60.5t-9 71v303h120v-243q0 -20 2 -44.5t10.5 -46t26 -36t49.5 -14.5q30 0 50.5 10t34 27t19.5 39t6 46v262h120v-480zM334 564h-94l-141 144h136z" />
    <glyph glyph-name="uacute" unicode="&#xfa;" horiz-adv-x="574" 
d="M506 0h-114v77h-2q-17 -36 -52 -62.5t-95 -26.5q-48 0 -81.5 15.5t-54.5 42t-30 60.5t-9 71v303h120v-243q0 -20 2 -44.5t10.5 -46t26 -36t49.5 -14.5q30 0 50.5 10t34 27t19.5 39t6 46v262h120v-480zM339 708h136l-141 -144h-94z" />
    <glyph glyph-name="ucircumflex" unicode="&#xfb;" horiz-adv-x="574" 
d="M506 0h-114v77h-2q-17 -36 -52 -62.5t-95 -26.5q-48 0 -81.5 15.5t-54.5 42t-30 60.5t-9 71v303h120v-243q0 -20 2 -44.5t10.5 -46t26 -36t49.5 -14.5q30 0 50.5 10t34 27t19.5 39t6 46v262h120v-480zM355 564l-69 90l-69 -90h-112l115 144h135l114 -144h-114z" />
    <glyph glyph-name="udieresis" unicode="&#xfc;" horiz-adv-x="574" 
d="M506 0h-114v77h-2q-17 -36 -52 -62.5t-95 -26.5q-48 0 -81.5 15.5t-54.5 42t-30 60.5t-9 71v303h120v-243q0 -20 2 -44.5t10.5 -46t26 -36t49.5 -14.5q30 0 50.5 10t34 27t19.5 39t6 46v262h120v-480zM107 636q0 29 21.5 50.5t54.5 21.5t55.5 -20.5t22.5 -51.5
t-22.5 -51.5t-55.5 -20.5t-54.5 21.5t-21.5 50.5zM313 636q0 29 21.5 50.5t54.5 21.5t55.5 -20.5t22.5 -51.5t-22.5 -51.5t-55.5 -20.5t-54.5 21.5t-21.5 50.5z" />
    <glyph glyph-name="yacute" unicode="&#xfd;" horiz-adv-x="519" 
d="M3 480h132l134 -333h2l120 333h125l-227 -583q-13 -34 -28.5 -59.5t-36.5 -43t-49.5 -26t-68.5 -8.5q-47 0 -92 12l15 108q14 -5 29.5 -8.5t31.5 -3.5q22 0 37 4t25 12.5t17.5 22t15.5 32.5l23 57zM312 708h136l-141 -144h-94z" />
    <glyph glyph-name="thorn" unicode="&#xfe;" horiz-adv-x="630" 
d="M68 756h120v-338h2q22 36 65 55t94 19q55 0 99 -19.5t75 -53.5t47 -80t16 -99t-17 -99t-47.5 -80t-73.5 -53.5t-94 -19.5q-33 0 -59.5 7t-46.5 18t-34 23.5t-23 24.5h-3v-289h-120v984zM466 240q0 28 -9.5 54t-28 46t-44.5 32t-59 12t-59 -12t-44.5 -32t-28 -46t-9.5 -54
t9.5 -54t28 -46t44.5 -32t59 -12t59 12t44.5 32t28 46t9.5 54z" />
    <glyph glyph-name="ydieresis" unicode="&#xff;" horiz-adv-x="519" 
d="M3 480h132l134 -333h2l120 333h125l-227 -583q-13 -34 -28.5 -59.5t-36.5 -43t-49.5 -26t-68.5 -8.5q-47 0 -92 12l15 108q14 -5 29.5 -8.5t31.5 -3.5q22 0 37 4t25 12.5t17.5 22t15.5 32.5l23 57zM80 636q0 29 21.5 50.5t54.5 21.5t55.5 -20.5t22.5 -51.5t-22.5 -51.5
t-55.5 -20.5t-54.5 21.5t-21.5 50.5zM286 636q0 29 21.5 50.5t54.5 21.5t55.5 -20.5t22.5 -51.5t-22.5 -51.5t-55.5 -20.5t-54.5 21.5t-21.5 50.5z" />
    <glyph glyph-name="dotlessi" unicode="&#x131;" horiz-adv-x="260" 
d="M70 480h120v-480h-120v480z" />
    <glyph glyph-name="Lslash" unicode="&#x141;" horiz-adv-x="519" 
d="M79 187l-70 -62v110l70 62v411h126v-300l206 181v-109l-206 -182v-184h301v-114h-427v187z" />
    <glyph glyph-name="lslash" unicode="&#x142;" horiz-adv-x="260" 
d="M70 273l-69 -69v109l69 69v374h120v-255l69 69v-107l-69 -68v-395h-120v273z" />
    <glyph glyph-name="OE" unicode="&#x152;" horiz-adv-x="1000" 
d="M645 420h270v-114h-270v-192h305v-114h-497q-96 0 -170.5 27t-126.5 75t-79 112.5t-27 139.5q0 76 27 140.5t79 112t126.5 74.5t170.5 27h480v-114h-288v-174zM519 594h-63q-23 0 -52 -4.5t-58.5 -15t-58 -28t-50.5 -44t-35.5 -63.5t-13.5 -85t13.5 -85t35.5 -63.5
t50.5 -44t58 -28t58.5 -15t52 -4.5h63v480z" />
    <glyph glyph-name="oe" unicode="&#x153;" horiz-adv-x="926" 
d="M540 204q-1 -27 10 -49t28.5 -38t38.5 -24.5t40 -8.5q45 0 75 18.5t53 46.5l83 -59q-40 -57 -92.5 -79.5t-118.5 -22.5q-60 0 -105 20t-73 57q-36 -40 -82 -58.5t-100 -18.5t-102 18t-83 51t-55.5 79.5t-20.5 103.5t20.5 103.5t55.5 79.5t83 51t102 18t101 -19t83 -59
q32 40 78 59t100 19q58 0 101.5 -20t72.5 -54.5t43 -81t14 -99.5v-33h-350zM770 288q-1 54 -32 84t-79 30q-22 0 -43.5 -7.5t-38.5 -21.5t-28.5 -35.5t-12.5 -49.5h234zM156 240q0 -30 9.5 -57.5t28 -48t44.5 -32.5t59 -12q34 0 60.5 12t45 32.5t28 48t9.5 57.5t-9.5 57.5
t-28 48t-45 32.5t-60.5 12q-33 0 -59 -12t-44.5 -32.5t-28 -48t-9.5 -57.5z" />
    <glyph glyph-name="Scaron" unicode="&#x160;" horiz-adv-x="574" 
d="M426 556q-20 29 -53.5 42.5t-70.5 13.5q-22 0 -42.5 -5t-37 -16t-26.5 -28.5t-10 -41.5q0 -36 25 -55t62 -33t81 -27t81 -36t62 -61t25 -101q0 -57 -21 -99.5t-56.5 -70.5t-82.5 -42t-99 -14q-66 0 -126.5 22t-105.5 74l95 92q23 -35 60.5 -54.5t79.5 -19.5q22 0 44 6
t40 18t29 30.5t11 42.5q0 39 -25 60t-62 35.5t-81 27.5t-81 35.5t-62 60t-25 100.5q0 55 22.5 95t59 66.5t83.5 39.5t96 13q57 0 109 -17t94 -56zM220 900l69 -90l69 90h110l-115 -144h-133l-114 144h114z" />
    <glyph glyph-name="scaron" unicode="&#x161;" horiz-adv-x="444" 
d="M324 347q-34 49 -94 49q-24 0 -47 -12t-23 -39q0 -22 19 -32t48 -17t62.5 -14.5t62.5 -23t48 -42.5t19 -74q0 -43 -18.5 -72.5t-48 -47.5t-66.5 -26t-74 -8q-57 0 -103.5 16t-83.5 58l80 75q23 -26 49.5 -42.5t64.5 -16.5q13 0 27 3t26 10t19.5 17.5t7.5 24.5
q0 25 -19 37t-48 19.5t-62.5 14t-62.5 21t-48 40.5t-19 72q0 40 16.5 69.5t43.5 48.5t62 28t71 9q48 0 95 -16.5t76 -56.5zM155 708l69 -90l69 90h110l-115 -144h-133l-114 144h114z" />
    <glyph glyph-name="Ydieresis" unicode="&#x178;" horiz-adv-x="630" 
d="M252 303l-266 405h158l174 -282l176 282h150l-266 -405v-303h-126v303zM135 828q0 29 21.5 50.5t54.5 21.5t55.5 -20.5t22.5 -51.5t-22.5 -51.5t-55.5 -20.5t-54.5 21.5t-21.5 50.5zM341 828q0 29 21.5 50.5t54.5 21.5t55.5 -20.5t22.5 -51.5t-22.5 -51.5t-55.5 -20.5
t-54.5 21.5t-21.5 50.5z" />
    <glyph glyph-name="Zcaron" unicode="&#x17d;" horiz-adv-x="611" 
d="M35 114l378 480h-372v114h529v-114l-381 -480h387v-114h-541v114zM239 900l69 -90l69 90h110l-115 -144h-133l-114 144h114z" />
    <glyph glyph-name="zcaron" unicode="&#x17e;" horiz-adv-x="482" 
d="M34 111l257 271v2h-245v96h390v-109l-260 -275h272v-96h-414v111zM174 708l69 -90l69 90h110l-115 -144h-133l-114 144h114z" />
    <glyph glyph-name="florin" unicode="&#x192;" horiz-adv-x="592" 
d="M480 336h-138l-57 -288q-19 -97 -64 -142t-123 -45q-26 0 -52.5 6t-49.5 18l45 92q10 -7 22.5 -10.5t24.5 -3.5q39 0 55 29.5t25 74.5l53 269h-113v90h131l22 111q7 37 20 70.5t34 58.5t51.5 39.5t74.5 14.5q32 0 60.5 -8t56.5 -23l-46 -93q-26 16 -55 16q-22 0 -36 -9.5
t-23 -24t-13.5 -32.5t-8.5 -36l-18 -84h122v-90z" />
    <glyph glyph-name="circumflex" unicode="&#x2c6;" horiz-adv-x="260" 
d="M198 564l-69 90l-69 -90h-112l115 144h135l114 -144h-114z" />
    <glyph glyph-name="caron" unicode="&#x2c7;" horiz-adv-x="260" 
d="M63 708l69 -90l69 90h110l-115 -144h-133l-114 144h114z" />
    <glyph glyph-name="breve" unicode="&#x2d8;" horiz-adv-x="260" 
d="M27 708q7 -38 36 -52t67 -14q43 0 68 12t36 54h66q-8 -75 -53.5 -109.5t-117.5 -34.5t-118 34.5t-51 109.5h67z" />
    <glyph glyph-name="dotaccent" unicode="&#x2d9;" horiz-adv-x="260" 
d="M53 636q0 29 21.5 50.5t54.5 21.5t55.5 -20.5t22.5 -51.5t-22.5 -51.5t-55.5 -20.5t-54.5 21.5t-21.5 50.5z" />
    <glyph glyph-name="ring" unicode="&#x2da;" horiz-adv-x="260" 
d="M235 655q0 -45 -30 -73.5t-75 -28.5t-75 28t-30 73q0 22 8 41t22 32.5t33 21.5t42 8q45 0 75 -28.5t30 -73.5zM187 655q0 23 -17 38.5t-40 15.5t-40 -15.5t-17 -38.5t17 -38.5t40 -15.5t40 15t17 39z" />
    <glyph glyph-name="ogonek" unicode="&#x2db;" horiz-adv-x="260" 
d="M202 -196q-21 -17 -46.5 -27.5t-53.5 -10.5q-20 0 -38.5 5.5t-33 17t-23 28t-8.5 38.5q0 21 9.5 42.5t24.5 42t32.5 37.5t33.5 29h61q-12 -10 -26 -25t-27 -32.5t-21.5 -36t-8.5 -34.5q0 -19 13.5 -32.5t32.5 -13.5q14 0 28.5 6t25.5 15z" />
    <glyph glyph-name="tilde" unicode="&#x2dc;" horiz-adv-x="260" 
d="M-54 568q4 24 11.5 47t20.5 40.5t32.5 28.5t47.5 11q20 0 40.5 -6t39.5 -12.5t35.5 -12.5t28.5 -6q20 0 30.5 12.5t15.5 29.5h66q-4 -24 -11.5 -47t-20.5 -40.5t-32.5 -28.5t-47.5 -11q-20 0 -40.5 6t-39.5 13t-35.5 13t-28.5 6q-20 0 -30.5 -13t-15.5 -30h-66z" />
    <glyph glyph-name="hungarumlaut" unicode="&#x2dd;" horiz-adv-x="260" 
d="M79 708h136l-141 -144h-94zM284 708h136l-141 -144h-94z" />
    <glyph glyph-name="uni2126" unicode="&#x3a9;" horiz-adv-x="759" 
d="M425 0v189q38 7 67.5 26.5t49.5 47.5t30 62.5t10 71.5q0 45 -15 84.5t-42.5 69.5t-65.5 47.5t-84 17.5q-47 0 -85.5 -17.5t-66 -47.5t-42.5 -70t-15 -85q0 -78 38 -132.5t116 -74.5v-189h-274v96h182v42q-91 29 -136.5 101t-45.5 165q0 69 25.5 127.5t70 100.5t104 65.5
t127.5 23.5t128 -23t104.5 -64t70 -99t25.5 -128q0 -47 -11.5 -89.5t-34 -77.5t-57 -61.5t-80.5 -40.5v-42h183v-96h-276z" />
    <glyph glyph-name="uni2126" unicode="&#x2126;" horiz-adv-x="759" 
d="M425 0v189q38 7 67.5 26.5t49.5 47.5t30 62.5t10 71.5q0 45 -15 84.5t-42.5 69.5t-65.5 47.5t-84 17.5q-47 0 -85.5 -17.5t-66 -47.5t-42.5 -70t-15 -85q0 -78 38 -132.5t116 -74.5v-189h-274v96h182v42q-91 29 -136.5 101t-45.5 165q0 69 25.5 127.5t70 100.5t104 65.5
t127.5 23.5t128 -23t104.5 -64t70 -99t25.5 -128q0 -47 -11.5 -89.5t-34 -77.5t-57 -61.5t-80.5 -40.5v-42h183v-96h-276z" />
    <glyph glyph-name="pi" unicode="&#x3c0;" horiz-adv-x="593" 
d="M570 13q-21 -10 -41.5 -15t-43.5 -5q-33 0 -53.5 10t-32 27.5t-15 41.5t-3.5 52v258h-203v-382h-107v382h-70v102h566v-102h-79v-241q0 -11 0.5 -21t4.5 -18.5t11.5 -13.5t21.5 -5q23 0 44 10v-80z" />
    <glyph glyph-name="uni060C" unicode="&#x60c;" horiz-adv-x="308" 
d="M172 0h-122l85 264h107z" />
    <glyph glyph-name="uni0615" unicode="&#x615;" 
d="M-5 552h38v211h49v-129q15 23 36.5 33t46.5 10q43 0 67.5 -26t24.5 -68v-79h-262v48zM209 575q0 32 -13.5 43.5t-35.5 11.5q-26 0 -49.5 -20.5t-28.5 -57.5h127v23z" />
    <glyph glyph-name="uni061B" unicode="&#x61b;" horiz-adv-x="318" 
d="M198 238h-122l85 264h107zM68 70q0 32 23.5 55t56.5 23q32 0 56 -22t24 -54t-23.5 -55t-56.5 -23q-32 0 -56 22t-24 54z" />
    <glyph glyph-name="uni061F" unicode="&#x61f;" horiz-adv-x="519" 
d="M210 209v38q0 19 -3 32.5t-9.5 24.5t-16.5 21t-24 22q-23 20 -43 39t-34.5 40.5t-23 47t-8.5 57.5q0 47 16 83.5t44.5 61t67 37.5t83.5 13q97 0 159 -52.5t74 -149.5l-128 -10q-4 42 -31 70t-69 28q-39 0 -64.5 -24.5t-25.5 -63.5q0 -40 25 -65l77 -78q15 -16 25.5 -28
t16.5 -24t9 -27t3 -38v-55h-120zM350 70q0 -32 -24 -54t-56 -22q-33 0 -56.5 23t-23.5 55t24 54t56 22q33 0 56.5 -23t23.5 -55z" />
    <glyph glyph-name="uni0640" unicode="&#x640;" horiz-adv-x="162" 
d="M-2 0q-16 0 -22 8t-6 18v59q0 11 7 21t21 10h166q16 0 22 -8t6 -19v-61q0 -8 -6.5 -18t-20.5 -10h-167z" />
    <glyph glyph-name="uni0647" unicode="&#x647;" horiz-adv-x="472" 
d="M402 0h-181q-61 0 -103.5 17.5t-69.5 46t-39 64.5t-12 73q0 47 15.5 89.5t44 74.5t67.5 50.5t86 18.5q43 0 78.5 -14.5t61 -41t39 -63t13.5 -80.5v-235zM288 116v89q0 57 -22 87.5t-64 30.5q-17 0 -33.5 -7.5t-29.5 -21t-21 -32.5t-8 -43q0 -28 9 -47.5t24 -32t34.5 -18
t40.5 -5.5h70z" />
    <glyph glyph-name="uni064B" unicode="&#x64b;" 
d="M-102 828q55 20 106 38t105 37v-46q-55 -20 -106 -38t-105 -37v46zM-102 930q55 20 106 38t105 37v-46q-55 -20 -106 -38t-105 -36v45z" />
    <glyph glyph-name="uni064C" unicode="&#x64c;" 
d="M-29 833q20 0 37 7q-18 14 -27.5 32t-9.5 35q0 30 20 49.5t47 19.5q26 0 43.5 -16t17.5 -50q0 -27 -13.5 -47.5t-33 -34.5t-42 -21.5t-40.5 -7.5q-23 0 -47 10.5t-44 40.5l-42 -40l-21 22l63 64q19 -26 41.5 -44.5t50.5 -18.5zM4 908q0 -11 6 -25t25 -28q14 10 23.5 23
t9.5 30t-9.5 26t-20.5 9q-15 0 -24.5 -9.5t-9.5 -25.5z" />
    <glyph glyph-name="uni064D" unicode="&#x64d;" 
d="M-102 -280q55 20 106 38t105 37v-46q-55 -20 -106 -38t-105 -37v46zM-102 -178q55 20 106 38t105 37v-46q-55 -19 -106 -37t-105 -37v45z" />
    <glyph glyph-name="uni064E" unicode="&#x64e;" 
d="M-102 828q55 20 106 38t105 37v-46q-55 -20 -106 -38t-105 -37v46z" />
    <glyph glyph-name="uni064F" unicode="&#x64f;" 
d="M-29 826q17 0 41 8q-18 14 -28 33t-10 36q0 30 20.5 50t47.5 20q28 0 46 -16t18 -51q0 -27 -13.5 -48.5t-34 -36.5t-44.5 -22.5t-45 -7.5q-28 0 -53.5 4.5t-48.5 11.5l9 34q22 -7 44 -11t51 -4zM7 904q0 -14 6.5 -27.5t25.5 -28.5q15 10 25 24t10 32q0 17 -9.5 26
t-22.5 9q-14 0 -24.5 -9.5t-10.5 -25.5z" />
    <glyph glyph-name="uni0650" unicode="&#x650;" 
d="M-102 -178q55 20 106 38t105 37v-46q-55 -19 -106 -37t-105 -37v45z" />
    <glyph glyph-name="uni0651" unicode="&#x651;" 
d="M1 832q-11 -14 -27 -23.5t-35 -9.5q-37 0 -59.5 23.5t-22.5 61.5v78h40v-80q0 -22 12.5 -32.5t30.5 -10.5q17 0 29 12.5t12 30.5v67h39v-67q0 -18 12 -30.5t29 -12.5q18 0 30.5 10.5t12.5 32.5v80h40v-78q0 -38 -23.5 -61.5t-58.5 -23.5q-19 0 -35 9.5t-26 23.5z" />
    <glyph glyph-name="uni0652" unicode="&#x652;" 
d="M-87 791q0 36 25 61.5t62 25.5t62.5 -25.5t25.5 -61.5q0 -38 -25.5 -63.5t-62.5 -25.5t-62 25.5t-25 63.5zM-56 790q0 -24 16.5 -39.5t39.5 -15.5t39 15.5t16 39.5q0 23 -16 39t-39 16t-39.5 -16t-16.5 -39z" />
    <glyph glyph-name="uni0653" unicode="&#x653;" 
d="M-193 849q26 30 50.5 40.5t48.5 10.5q15 0 38 -8.5t48 -19.5q26 -11 50.5 -20.5t44.5 -9.5q22 0 35 15t20 33l48 -22q-19 -46 -42 -64.5t-65 -18.5q-23 0 -45.5 8.5t-45.5 19.5t-45 19.5t-46 8.5q-14 0 -29 -7.5t-29 -19.5z" />
    <glyph glyph-name="uni0654" unicode="&#x654;" 
d="M61 923q-18 5 -36 5q-15 0 -25 -8.5t-10 -25.5q0 -15 13.5 -28t42.5 -13h31v-53h-169v53h45q-8 11 -15 24t-7 30q0 29 22 51t67 22q12 0 25.5 -2t24.5 -5z" />
    <glyph glyph-name="uni0655" unicode="&#x655;" 
d="M61 -141q-18 5 -36 5q-15 0 -25 -8.5t-10 -25.5q0 -15 13.5 -28t42.5 -13h31v-53h-169v53h45q-8 11 -15 24t-7 30q0 29 22 51t67 22q12 0 25.5 -2t24.5 -5z" />
    <glyph glyph-name="uni0656" unicode="&#x656;" 
d="M-14 -154h35v-173h-35v173z" />
    <glyph glyph-name="uni0658" unicode="&#x658;" 
d="M-30 813q-10 -10 -18 -22.5t-8 -31.5q0 -20 14 -35.5t39 -15.5q27 0 39 15.5t12 34.5q0 15 -4.5 26.5t-12.5 22.5l16 12q14 -11 22.5 -31t8.5 -40q0 -36 -22.5 -60.5t-59.5 -24.5q-42 0 -63 23.5t-21 55.5q0 26 12.5 47.5t29.5 35.5z" />
    <glyph glyph-name="uni0660" unicode="&#x660;" horiz-adv-x="499" 
d="M307 1h-117v120h117v-120z" />
    <glyph glyph-name="uni0661" unicode="&#x661;" horiz-adv-x="499" 
d="M192 623h114v-623h-114v623z" />
    <glyph glyph-name="uni0662" unicode="&#x662;" horiz-adv-x="499" 
d="M119 623h325v-111h-196l62 -512h-109z" />
    <glyph glyph-name="uni0663" unicode="&#x663;" horiz-adv-x="499" 
d="M58 623h112l12 -107q5 -1 9 -1.5t6 -0.5q26 0 34.5 30.5t8.5 79.5h106v-13q0 -25 -2.5 -49.5t-10.5 -46.5q5 -1 7 -1h4q26 0 34.5 30.5t8.5 79.5h106v-15q0 -33 -7 -66.5t-22.5 -60.5t-40.5 -44t-61 -17q-17 0 -37 4t-44 15q-28 -19 -66 -19h-10t-10 1l53 -422h-111z" />
    <glyph glyph-name="uni0664" unicode="&#x664;" horiz-adv-x="499" 
d="M293 267q-13 -16 -27.5 -34.5t-26.5 -37t-20 -36.5t-8 -33q0 -11 23.5 -18t58.5 -7q26 0 57 6.5t64 17.5v-110q-17 -8 -37 -13.5t-39.5 -8.5t-35.5 -4.5t-25 -1.5q-85 0 -132 27.5t-47 81.5q0 42 28.5 99t79.5 117q-29 15 -47 27.5t-28.5 24.5t-14.5 24t-4 26q0 17 10 48
t35.5 64.5t69 65t109.5 49.5v-111q-38 -13 -63 -27t-40 -26.5t-21 -22.5t-6 -15q0 -3 15 -10.5l33 -16.5q15 -8 30 -16.5t27 -18.5t19.5 -20.5t7.5 -21.5t-12.5 -28.5t-32.5 -39.5z" />
    <glyph glyph-name="uni0665" unicode="&#x665;" horiz-adv-x="499" 
d="M253 472q40 0 74 -24.5t58.5 -64t38 -90.5t13.5 -104q0 -32 -10 -67.5t-32 -66t-58 -50.5t-87 -20q-59 0 -96 21.5t-57 53.5t-27 69.5t-7 69.5q0 52 16.5 101t43.5 87t61 61.5t69 23.5zM333 207q0 30 -6.5 57t-17.5 46.5t-26.5 31t-34.5 11.5q-21 0 -36 -13.5
t-24.5 -34.5t-14.5 -46t-5 -49q0 -18 3.5 -38t13 -36t26 -26.5t43.5 -10.5q22 0 37.5 10.5t24.5 26t13 34.5t4 37z" />
    <glyph glyph-name="uni0666" unicode="&#x666;" horiz-adv-x="499" 
d="M428 0h-110l-63 512h-200v111h298z" />
    <glyph glyph-name="uni0667" unicode="&#x667;" horiz-adv-x="499" 
d="M135 623l126 -404l120 404h109l-193 -623h-76l-211 623h125z" />
    <glyph glyph-name="uni0668" unicode="&#x668;" horiz-adv-x="499" 
d="M363 0l-126 401l-119 -402h-109l193 623h75l212 -622h-126z" />
    <glyph glyph-name="uni0669" unicode="&#x669;" horiz-adv-x="499" 
d="M292 298h-63q-47 0 -80 14.5t-54 38t-30.5 52t-9.5 57.5q0 46 14.5 81t39 58.5t56 35.5t64.5 12q35 0 62 -13t46 -34.5t30 -48.5t14 -55l59 -496h-110zM155 469q0 -33 21 -51.5t56 -18.5h47l-9 71q-5 27 -16.5 49t-37.5 22q-23 0 -42 -18t-19 -54z" />
    <glyph glyph-name="uni066A" unicode="&#x66a;" horiz-adv-x="623" 
d="M153 532v93h90v-93h-90zM401 88v92h90v-92h-90zM485 740l83 -38l-416 -734l-83 38z" />
    <glyph glyph-name="uni066B" unicode="&#x66b;" horiz-adv-x="296" 
d="M108 138h122l-85 -264h-107z" />
    <glyph glyph-name="uni066C" unicode="&#x66c;" horiz-adv-x="270" 
d="M108 413h122l-85 -264h-107z" />
    <glyph glyph-name="uni066D" unicode="&#x66d;" horiz-adv-x="466" 
d="M407 557l-119 -72l55 -122l-14 -11l-100 90l-102 -90l-14 11l52 122l-115 72l5 17l137 -18l29 132h16l27 -132l138 18z" />
    <glyph glyph-name="uni0670" unicode="&#x670;" 
d="M-14 974h35v-173h-35v173z" />
    <glyph glyph-name="uni06C2" unicode="&#x6c2;" horiz-adv-x="472" 
d="M402 0h-181q-61 0 -103.5 17.5t-69.5 46t-39 64.5t-12 73q0 47 15.5 89.5t44 74.5t67.5 50.5t86 18.5q43 0 78.5 -14.5t61 -41t39 -63t13.5 -80.5v-235zM288 116v89q0 57 -22 87.5t-64 30.5q-17 0 -33.5 -7.5t-29.5 -21t-21 -32.5t-8 -43q0 -28 9 -47.5t24 -32t34.5 -18
t40.5 -5.5h70zM284 656q-11 3 -23.5 5.5t-26.5 2.5q-20 0 -34 -12t-14 -36q0 -20 19 -38t58 -18h43v-74h-234v74h62q-11 14 -20.5 33t-9.5 42q0 40 30.5 70.5t93.5 30.5q16 0 34.5 -2.5t33.5 -7.5z" />
    <glyph glyph-name="uni06C3" unicode="&#x6c3;" horiz-adv-x="472" 
d="M402 0h-181q-61 0 -103.5 17.5t-69.5 46t-39 64.5t-12 73q0 47 15.5 89.5t44 74.5t67.5 50.5t86 18.5q43 0 78.5 -14.5t61 -41t39 -63t13.5 -80.5v-235zM288 116v89q0 57 -22 87.5t-64 30.5q-17 0 -33.5 -7.5t-29.5 -21t-21 -32.5t-8 -43q0 -28 9 -47.5t24 -32t34.5 -18
t40.5 -5.5h70zM57 554q0 24 17 41t43 17t43 -17t17 -41t-17 -41t-43 -17t-43 17t-17 41zM213 554q0 24 17 41t43 17t43 -17t17 -41t-17 -41t-43 -17t-43 17t-17 41z" />
    <glyph glyph-name="uni06D4" unicode="&#x6d4;" horiz-adv-x="361" 
d="M305 0h-146q-46 0 -74 27t-28 69q0 18 6 39q39 -19 103 -19h139v-116z" />
    <glyph glyph-name="uni06D5" unicode="&#x6d5;" horiz-adv-x="472" 
d="M402 0h-181q-61 0 -103.5 17.5t-69.5 46t-39 64.5t-12 73q0 47 15.5 89.5t44 74.5t67.5 50.5t86 18.5q43 0 78.5 -14.5t61 -41t39 -63t13.5 -80.5v-235zM288 116v89q0 57 -22 87.5t-64 30.5q-17 0 -33.5 -7.5t-29.5 -21t-21 -32.5t-8 -43q0 -28 9 -47.5t24 -32t34.5 -18
t40.5 -5.5h70z" />
    <glyph glyph-name="uni06F0" unicode="&#x6f0;" horiz-adv-x="499" 
d="M307 1h-117v120h117v-120z" />
    <glyph glyph-name="uni06F1" unicode="&#x6f1;" horiz-adv-x="499" 
d="M192 623h114v-623h-114v623z" />
    <glyph glyph-name="uni06F2" unicode="&#x6f2;" horiz-adv-x="499" 
d="M119 623h325v-111h-196l62 -512h-109z" />
    <glyph glyph-name="uni06F3" unicode="&#x6f3;" horiz-adv-x="499" 
d="M58 623h112l12 -107q5 -1 9 -1.5t6 -0.5q26 0 34.5 30.5t8.5 79.5h106v-13q0 -25 -2.5 -49.5t-10.5 -46.5q5 -1 7 -1h4q26 0 34.5 30.5t8.5 79.5h106v-15q0 -33 -7 -66.5t-22.5 -60.5t-40.5 -44t-61 -17q-17 0 -37 4t-44 15q-28 -19 -66 -19h-10t-10 1l53 -422h-111z" />
    <glyph glyph-name="uni06F4" unicode="&#x6f4;" horiz-adv-x="550" 
d="M231 0h-117l-79 623h114l15 -128q17 -5 36 -8.5t36 -6.5q-22 25 -31.5 48.5t-9.5 42.5q0 24 10 41.5t26.5 29.5t36.5 18t41 6q10 0 24.5 -2t27.5 -7v-72q-11 4 -22.5 5.5t-17.5 1.5q-17 0 -30 -9.5t-13 -31.5q0 -13 11 -34.5t30 -36.5q40 3 58 32t20 80h101
q0 -57 -15.5 -95.5t-42 -61t-61.5 -32t-73 -9.5q-26 0 -62 4t-66 11z" />
    <glyph glyph-name="uni06F5" unicode="&#x6f5;" horiz-adv-x="550" 
d="M279 628q42 0 82 -35t70.5 -93t49.5 -134.5t19 -158.5q0 -48 -7.5 -89t-23 -70t-40 -45.5t-58.5 -16.5q-20 0 -42.5 5.5t-51.5 22.5q-28 -14 -52.5 -20.5t-42.5 -6.5q-35 0 -60 16t-41 44.5t-23.5 67t-7.5 84.5q0 82 20.5 159.5t53.5 137.5t73.5 96t81.5 36zM390 233
q0 59 -12.5 111t-30.5 91t-38.5 61.5t-36.5 22.5q-20 0 -40.5 -25.5t-37 -66t-27.5 -91.5t-11 -102q0 -69 20.5 -103t52.5 -34q12 0 23.5 4t26.5 12q29 -17 48 -17q12 0 23 6.5t20 22.5t14.5 42.5t5.5 65.5z" />
    <glyph glyph-name="uni06F6" unicode="&#x6f6;" horiz-adv-x="550" 
d="M489 325q-59 -26 -107 -59t-88 -74.5t-74.5 -92.5t-67.5 -114q-19 13 -43 28.5t-44 27.5q36 72 76 131t86 107q-35 17 -57.5 38t-36.5 43t-19.5 44t-5.5 41q0 40 16.5 73.5t44 58t64 38t76.5 13.5q23 0 58 -5t66 -17v-99q-26 11 -54.5 17t-45.5 6q-20 0 -39.5 -5t-36 -16
t-26.5 -29t-10 -44q0 -29 22 -53t60 -42q32 25 66 42t72 34z" />
    <glyph glyph-name="uni06F7" unicode="&#x6f7;" horiz-adv-x="499" 
d="M135 623l126 -404l120 404h109l-193 -623h-76l-211 623h125z" />
    <glyph glyph-name="uni06F8" unicode="&#x6f8;" horiz-adv-x="499" 
d="M363 0l-126 401l-119 -402h-109l193 623h75l212 -622h-126z" />
    <glyph glyph-name="uni06F9" unicode="&#x6f9;" horiz-adv-x="499" 
d="M292 298h-63q-47 0 -80 14.5t-54 38t-30.5 52t-9.5 57.5q0 46 14.5 81t39 58.5t56 35.5t64.5 12q35 0 62 -13t46 -34.5t30 -48.5t14 -55l59 -496h-110zM155 469q0 -33 21 -51.5t56 -18.5h47l-9 71q-5 27 -16.5 49t-37.5 22q-23 0 -42 -18t-19 -54z" />
    <glyph glyph-name="uni2002" unicode="&#x2002;" horiz-adv-x="500" 
 />
    <glyph glyph-name="uni2003" unicode="&#x2003;" horiz-adv-x="1000" 
 />
    <glyph glyph-name="uni2009" unicode="&#x2009;" horiz-adv-x="100" 
 />
    <glyph glyph-name="uni200A" unicode="&#x200a;" horiz-adv-x="20" 
 />
    <glyph glyph-name="uni200C" unicode="&#x200c;" 
d="M-53 924l53 -53l52 52l16 -16l-52 -52l52 -52l-16 -16l-52 51l-53 -52l-16 17l52 52l-52 52z" />
    <glyph glyph-name="uni200D" unicode="&#x200d;" 
d="M77 798v46h-153v-46h-23v69h199v-69h-23z" />
    <glyph glyph-name="uni200E" unicode="&#x200e;" 
d="M10 907l16 17l69 -69l-69 -69l-16 17l41 41h-126v23h126z" />
    <glyph glyph-name="uni200F" unicode="&#x200f;" 
d="M-10 803l-16 -16l-69 68l69 69l16 -16l-41 -41h127v-23h-126z" />
    <glyph glyph-name="endash" unicode="&#x2013;" horiz-adv-x="500" 
d="M500 198h-500v96h500v-96z" />
    <glyph glyph-name="emdash" unicode="&#x2014;" horiz-adv-x="1000" 
d="M1000 198h-1000v96h1000v-96z" />
    <glyph glyph-name="quoteleft" unicode="&#x2018;" horiz-adv-x="296" 
d="M174 444h-122l85 264h107z" />
    <glyph glyph-name="quoteright" unicode="&#x2019;" horiz-adv-x="296" 
d="M122 708h122l-85 -264h-107z" />
    <glyph glyph-name="quotesinglbase" unicode="&#x201a;" horiz-adv-x="296" 
d="M122 138h122l-85 -264h-107z" />
    <glyph glyph-name="quotedblleft" unicode="&#x201c;" horiz-adv-x="519" 
d="M180 444h-122l85 264h107zM391 444h-122l85 264h107z" />
    <glyph glyph-name="quotedblright" unicode="&#x201d;" horiz-adv-x="519" 
d="M339 708h122l-85 -264h-107zM128 708h122l-85 -264h-107z" />
    <glyph glyph-name="quotedblbase" unicode="&#x201e;" horiz-adv-x="519" 
d="M338 138h122l-85 -264h-107zM129 138h122l-85 -264h-107z" />
    <glyph glyph-name="dagger" unicode="&#x2020;" horiz-adv-x="593" 
d="M353 505h199v-96h-199v-535h-114v535h-198v96h198v203h114v-203z" />
    <glyph glyph-name="daggerdbl" unicode="&#x2021;" horiz-adv-x="593" 
d="M353 523h193v-96h-193v-271h193v-96h-193v-186h-114v186h-192v96h192v271h-192v96h192v185h114v-185z" />
    <glyph glyph-name="bullet" unicode="&#x2022;" horiz-adv-x="500" 
d="M73 354q0 37 14 69t38 56t56 38t69 14t69 -14t56 -38t38 -56t14 -69t-14 -69t-38 -56t-56 -38t-69 -14t-69 14t-56 38t-38 56t-14 69z" />
    <glyph glyph-name="ellipsis" unicode="&#x2026;" horiz-adv-x="1000" 
d="M87 70q0 32 23.5 55t56.5 23q32 0 56 -22t24 -54t-23.5 -55t-56.5 -23q-32 0 -56 22t-24 54zM420 70q0 32 23.5 55t56.5 23q32 0 56 -22t24 -54t-23.5 -55t-56.5 -23q-32 0 -56 22t-24 54zM753 70q0 32 23.5 55t56.5 23q32 0 56 -22t24 -54t-23.5 -55t-56.5 -23
q-32 0 -56 22t-24 54z" />
    <glyph glyph-name="uni202A" unicode="&#x202a;" 
d="M-28 844h-57v23h57v-23zM1 867h50l-41 40l16 17l69 -69l-69 -69l-16 17l41 41h-50v23z" />
    <glyph glyph-name="uni202B" unicode="&#x202b;" 
d="M28 867h57v-23h-57v23zM-1 844h-49l40 -41l-16 -16l-69 68l69 69l16 -16l-41 -41h50v-23z" />
    <glyph glyph-name="uni202C" unicode="&#x202c;" 
d="M-52 846l-17 16l69 69l69 -69l-17 -16l-41 41v-102h-23v101z" />
    <glyph glyph-name="uni202D" unicode="&#x202d;" 
d="M-37 907l16 17l69 -69l-69 -69l-16 17l41 41h-107v23h106zM28 907l16 17l69 -69l-69 -69l-16 17l53 52z" />
    <glyph glyph-name="uni202E" unicode="&#x202e;" 
d="M38 827l-17 -17l-68 69l68 69l17 -17l-41 -41h107v-23h-107zM-28 827l-16 -17l-69 69l69 69l16 -17l-52 -52z" />
    <glyph glyph-name="perthousand" unicode="&#x2030;" horiz-adv-x="1167" 
d="M411 165q0 36 14 68t38 56t56 38t68 14t68.5 -14t56.5 -38t38 -56t14 -68t-14 -68.5t-38 -56.5t-56.5 -38t-68.5 -14t-68 14t-56 38t-38 56.5t-14 68.5zM807 165q0 36 14 68t38 56t56 38t68 14t68.5 -14t56.5 -38t38 -56t14 -68t-14 -68.5t-38 -56.5t-56.5 -38t-68.5 -14
t-68 14t-56 38t-38 56.5t-14 68.5zM7 544q0 36 14 68t38 56t56 38t68 14t68.5 -14t56.5 -38t38 -56t14 -68t-14 -68.5t-38 -56.5t-56.5 -38t-68.5 -14t-68 14t-56 38t-38 56.5t-14 68.5zM97 544q0 -38 24 -62.5t62 -24.5t62.5 24.5t24.5 62.5t-24.5 62t-62.5 24t-62 -24
t-24 -62zM501 165q0 -38 24 -62.5t62 -24.5t62.5 24.5t24.5 62.5t-24.5 62t-62.5 24t-62 -24t-24 -62zM897 165q0 -38 24 -62.5t62 -24.5t62.5 24.5t24.5 62.5t-24.5 62t-62.5 24t-62 -24t-24 -62zM550 740l83 -38l-416 -734l-83 38z" />
    <glyph glyph-name="guilsinglleft" unicode="&#x2039;" horiz-adv-x="296" 
d="M142 248l116 -175l-76 -51l-152 226l152 224l75 -51z" />
    <glyph glyph-name="guilsinglright" unicode="&#x203a;" horiz-adv-x="296" 
d="M154 246l-116 175l76 51l152 -226l-152 -224l-75 51z" />
    <glyph glyph-name="fraction" unicode="&#x2044;" horiz-adv-x="167" 
d="M250 740l83 -38l-416 -734l-83 38z" />
    <glyph glyph-name="fraction" unicode="&#x2215;" horiz-adv-x="167" 
d="M250 740l83 -38l-416 -734l-83 38z" />
    <glyph glyph-name="Euro" unicode="&#x20ac;" horiz-adv-x="592" 
d="M560 74q-25 -35 -77.5 -60.5t-124.5 -25.5q-60 0 -105 17t-77 47.5t-52 72.5t-30 93h-79l28 90h40q-1 10 -1 20v21q0 14 0.5 26.5t1.5 24.5h-66l31 93h52q32 111 108.5 169t185.5 58q41 0 82 -9.5t64 -23.5l-37 -103q-44 29 -111 29q-50 0 -93.5 -27.5t-66.5 -92.5h248
l-29 -93h-238q-3 -27 -3 -57v-18t1 -17h216l-29 -90h-174q15 -57 48.5 -90.5t90.5 -33.5q42 0 70.5 14.5t50.5 40.5z" />
    <glyph glyph-name="afii61289" unicode="&#x2113;" horiz-adv-x="510" 
d="M423 42q-62 -56 -132 -56q-57 0 -93.5 31.5t-36.5 98.5v116l-58 -63h-3l-27 38l88 85v265q0 43 10.5 76t28 56t41.5 35t51 12q51 0 82 -35t31 -96q0 -76 -43.5 -156t-131.5 -168v-154q0 -26 7 -43t18.5 -27t25 -14t26.5 -4q21 0 44 9t46 30h2zM347 600q0 38 -16 62.5
t-39 24.5t-42.5 -28t-19.5 -91v-226q58 66 87.5 133t29.5 125z" />
    <glyph glyph-name="trademark" unicode="&#x2122;" horiz-adv-x="1000" 
d="M162 618h-122v90h346v-90h-122v-322h-102v322zM480 708h142l98 -268l98 268h142v-412h-102v268h-2l-101 -268h-70l-101 268h-2v-268h-102v412z" />
    <glyph glyph-name="estimated" unicode="&#x212e;" horiz-adv-x="600" 
d="M157 259v-181q59 -59 145 -59q63 0 109 28.5t84 91.5l35 -21q-23 -36 -46.5 -61.5t-51 -42t-59.5 -24t-71 -7.5q-59 0 -106.5 21.5t-81.5 59t-52 87.5t-18 108t18 108.5t52 87.5t81.5 58.5t106.5 21.5q58 0 105.5 -20.5t81.5 -57t53 -87t19 -111.5h-404zM448 295v145
q-63 60 -147 60t-144 -60v-145h291z" />
    <glyph glyph-name="partialdiff" unicode="&#x2202;" horiz-adv-x="556" 
d="M514 358q0 -64 -10.5 -130t-38.5 -119.5t-77.5 -87.5t-128.5 -34q-50 0 -90 17.5t-69 48t-44.5 72t-15.5 90.5q0 48 15.5 88.5t44 70t68.5 46t88 16.5q42 0 76.5 -14.5t66.5 -40.5v28q1 36 -6 75.5t-24.5 72.5t-47 55t-73.5 22q-35 0 -65 -13.5t-57 -35.5l-59 70
q42 32 81.5 49t93.5 17q78 0 130 -32t83.5 -84t45 -116.5t13.5 -130.5zM397 289q-26 29 -55 46.5t-71 17.5q-31 0 -54 -12t-38 -31.5t-22.5 -46t-7.5 -54.5q0 -27 6.5 -52t20.5 -44t35.5 -30.5t51.5 -11.5q35 0 61 19t43 47.5t24.5 62.5t6.5 64z" />
    <glyph glyph-name="uni2206" unicode="&#x2206;" horiz-adv-x="685" 
d="M8 0l270 712h115l284 -712h-669zM334 581l-173 -477h358z" />
    <glyph glyph-name="product" unicode="&#x220f;" horiz-adv-x="741" 
d="M565 -214v897h-389v-897h-114v1000h617v-1000h-114z" />
    <glyph glyph-name="summation" unicode="&#x2211;" horiz-adv-x="648" 
d="M25 -214v89l303 417l-290 405v89h573v-103h-422l275 -390l-293 -404h453v-103h-599z" />
    <glyph glyph-name="minus" unicode="&#x2212;" horiz-adv-x="666" 
d="M604 354v-102h-542v102h542z" />
    <glyph glyph-name="radical" unicode="&#x221a;" horiz-adv-x="537" 
d="M338 -214h-106l-152 317l-51 -25l-41 90l148 68l129 -273l168 823h116z" />
    <glyph glyph-name="infinity" unicode="&#x221e;" horiz-adv-x="815" 
d="M770 263q0 -38 -11.5 -71t-33.5 -58t-53 -39t-71 -14q-31 0 -58 9.5t-50.5 25t-44.5 35.5t-40 42q-21 -22 -41.5 -42t-43 -35.5t-49 -24.5t-58.5 -9q-39 0 -71 14t-54 38t-34 57t-12 71q0 37 11.5 70t33 57t52.5 38t70 14q33 0 60.5 -10t51 -26.5t44 -38t40.5 -44.5
q19 23 39.5 44.5t44 38.5t51 27t59.5 10q39 0 70 -14t53 -38t33.5 -57t11.5 -70zM680 260q0 36 -21 61t-59 25q-20 0 -38.5 -8.5t-36 -21.5t-33 -28.5t-27.5 -28.5q13 -15 28 -29.5t32.5 -26t37 -19t40.5 -7.5q37 0 57 24t20 59zM350 259q-12 13 -28 28t-34 28t-37.5 21.5
t-38.5 8.5q-35 0 -56 -25.5t-21 -59.5q0 -37 21.5 -59.5t58.5 -22.5q19 0 38 7.5t36.5 19t33 26t27.5 28.5z" />
    <glyph glyph-name="integral" unicode="&#x222b;" horiz-adv-x="611" 
d="M486 709q0 -23 -14.5 -37.5t-37.5 -14.5q-24 0 -34.5 11.5t-16 25t-10 25t-15.5 11.5t-13.5 -9t-2.5 -17q0 -31 2 -61t2 -61v-589q0 -38 -5 -75t-20 -66.5t-43.5 -48t-75.5 -18.5q-18 0 -37.5 4t-36 13t-27 23.5t-10.5 35.5q0 23 15 38t38 15q24 0 34.5 -11.5t16 -25
t9.5 -25t14 -11.5q8 0 11.5 5.5t5 13t1 15t-0.5 12.5q0 26 -2 51t-2 51v506q0 28 -0.5 60.5t1.5 65t9.5 62.5t23.5 53t43 36.5t68 13.5q17 0 36.5 -4.5t36 -13.5t27 -23.5t10.5 -35.5z" />
    <glyph glyph-name="approxequal" unicode="&#x2248;" horiz-adv-x="593" 
d="M566 451q-3 -33 -12.5 -64t-27.5 -55t-45 -38.5t-64 -14.5q-30 0 -65.5 11t-70.5 23.5t-66 23.5t-51 11q-28 0 -43.5 -22.5t-20.5 -46.5h-71q3 31 12.5 62t27 55.5t44 40t62.5 15.5q31 0 64 -10.5t66 -22.5t65.5 -22.5t62.5 -10.5q28 0 42.5 20t19.5 45h71zM564 243
q-3 -33 -12.5 -64t-27 -55t-44.5 -38.5t-64 -14.5q-30 0 -65.5 11t-70.5 23.5t-66 23.5t-52 11q-28 0 -43.5 -22t-20.5 -46h-71q3 31 12.5 62t27 55.5t44 39.5t62.5 15q31 0 64 -10.5t66 -22.5t65.5 -22.5t62.5 -10.5q28 0 42.5 20t19.5 45h71z" />
    <glyph glyph-name="notequal" unicode="&#x2260;" horiz-adv-x="593" 
d="M272 96l-78 -153l-94 48l54 105h-119v108h173l59 115h-232v108h286l77 152l95 -47l-54 -105h118v-108h-172l-59 -115h231v-108h-285z" />
    <glyph glyph-name="lessequal" unicode="&#x2264;" horiz-adv-x="593" 
d="M35 274v108l522 177v-113l-375 -118l375 -112v-112zM35 -36v107h522v-107h-522z" />
    <glyph glyph-name="greaterequal" unicode="&#x2265;" horiz-adv-x="593" 
d="M35 104v112l375 112l-375 118v113l522 -177v-108zM35 -36v107h522v-107h-522z" />
    <glyph glyph-name="lozenge" unicode="&#x25ca;" horiz-adv-x="593" 
d="M346 -35h-100l-177 391l177 391h100l178 -391zM296 641l-118 -285l118 -286l119 286z" />
    <glyph glyph-name="uni25CC" unicode="&#x25cc;" horiz-adv-x="402" 
d="M28 167q0 24 23 24q25 0 25 -24q0 -23 -25 -23q-23 0 -23 23zM327 167q0 24 23 24q24 0 24 -24q0 -23 -24 -23q-23 0 -23 23zM177 317q0 24 24 24t24 -24q0 -25 -24 -25t-24 25zM177 18q0 24 24 24t24 -24t-24 -24t-24 24zM308 243q0 23 24 23q23 0 23 -23q0 -25 -23 -25
q-24 0 -24 25zM308 92q0 24 24 24q23 0 23 -24q0 -23 -23 -23q-24 0 -24 23zM47 243q0 23 23 23q25 0 25 -23q0 -25 -25 -25q-23 0 -23 25zM47 92q0 24 23 24q25 0 25 -24q0 -23 -25 -23q-23 0 -23 23zM103 298q0 24 22 24q25 0 25 -24t-25 -24q-22 0 -22 24zM251 298
q0 24 25 24q23 0 23 -24t-23 -24q-25 0 -25 24zM103 36q0 25 22 25q25 0 25 -25q0 -23 -25 -23q-22 0 -22 23zM251 36q0 25 25 25q23 0 23 -25q0 -23 -23 -23q-25 0 -25 23z" />
    <glyph glyph-name="uni274A" unicode="&#x274a;" horiz-adv-x="380" 
d="M149 520l-50 -72l-45 37l47 66l-79 28l19 54l78 -26v85h57v-85l81 25l17 -54l-77 -27l47 -65l-45 -37z" />
    <glyph glyph-name="fi" unicode="&#xfb01;" horiz-adv-x="593" 
d="M111 378h-99v102h99v68q0 50 7 90.5t26.5 69.5t54.5 44.5t91 15.5q20 0 39.5 -1.5t36.5 -5.5l-8 -102q-13 3 -25 5t-25 2q-25 0 -40 -8t-23.5 -21.5t-11 -31.5t-2.5 -38v-87h111v-102h-111v-378h-120v378zM420 480h120v-480h-120v480zM404 643q0 29 21.5 50.5t54.5 21.5
t55.5 -20.5t22.5 -51.5t-22.5 -51.5t-55.5 -20.5t-54.5 21.5t-21.5 50.5z" />
    <glyph glyph-name="fl" unicode="&#xfb02;" horiz-adv-x="593" 
d="M111 378h-99v102h99v68q0 50 7 90.5t26.5 69.5t54.5 44.5t91 15.5q20 0 39.5 -1.5t36.5 -5.5l-8 -102q-13 3 -25 5t-25 2q-25 0 -40 -8t-23.5 -21.5t-11 -31.5t-2.5 -38v-87h111v-102h-111v-378h-120v378zM420 756h120v-756h-120v756z" />
    <glyph glyph-name="uniFD3E" unicode="&#xfd3e;" horiz-adv-x="611" 
d="M562 274q0 -30 -65 -53v-60q0 -19 -9 -19q-8 0 -15 7l-84 64q-9 6 -18 6q-11 0 -11 -9q0 -8 12 -21l69 -77q5 -8 5 -13q0 -12 -22 -9l-48 7q-1 -2 -1 -8q0 -41 46 -120q19 -32 34.5 -56t28.5 -41q63 -75 63 -76q0 -11 -10 -11q-12 0 -65 44q-57 49 -108 113
q-32 40 -53.5 78.5t-32.5 76.5l-74 -14h-6q-11 0 -11 9q0 7 6 16l62 86q9 9 9 19q0 12 -10 12q-11 0 -24 -13l-71 -63q-14 -11 -20 -11q-13 0 -13 26v57q-16 3 -39 20q-26 20 -26 33q0 25 65 55v64q0 18 13 18q6 0 17 -8l79 -69q11 -8 17 -8q11 0 11 11q0 8 -4 12l-62 88
q-8 11 -8 19q0 10 15 10q5 0 7 -1l71 -11q31 88 94 166q45 56 107 108q50 38 55 38q13 0 13 -10q0 -6 -64 -79q-28 -31 -66 -104q-42 -78 -42 -112q0 -6 1 -7l50 4q16 1 16 -8t-12 -22l-68 -77q-5 -8 -5 -11q0 -10 12 -10q8 0 12 4l82 61q12 9 20 9q10 0 10 -14v-60
q21 -6 41 -20q24 -18 24 -36zM407 433l-2 2l-67 -12q5 20 9.5 34.5t6.5 22.5q10 34 22 56v53q-21 -20 -51 -81q-28 -60 -30 -83l-70 16l48 -75h4v32h24l20 34h2v-34h23v-29zM536 275q0 10 -27 24q-26 12 -38 12v58l-76 -57l1 -2h44v-22q17 -2 31 -13q-20 -11 -31 -11v-21
h-45l-3 -2l79 -58v57q7 1 16 4.5t21 8.5q28 13 28 22zM367 277q0 21 -16.5 36.5t-37.5 15.5t-37 -15.5t-16 -36.5t16 -36.5t37 -15.5t37.5 15.5t16.5 36.5zM231 308v2l-79 60v-59q-7 -1 -16 -4.5t-21 -8.5q-28 -13 -28 -22q0 -11 27 -24q25 -12 38 -12v-58l77 57v2h-46v22
q-17 2 -31 13q20 11 31 11v21h48zM408 118l-61 64v-29h-23v-34h-2l-20 34h-24v32h-2l-50 -75l70 16q1 -23 30 -84q29 -60 51 -80v53q-17 36 -38 113l67 -12z" />
    <glyph glyph-name="uniFD3F" unicode="&#xfd3f;" horiz-adv-x="611" 
d="M550 274q0 -13 -26 -33q-27 -17 -39 -20v-57q0 -26 -13 -26q-6 0 -20 11l-71 63q-13 13 -24 13q-10 0 -10 -12q0 -10 9 -19l62 -86q6 -9 6 -16q0 -9 -11 -9h-6l-74 14q-23 -75 -85 -155q-48 -60 -109 -113q-53 -44 -65 -44q-10 0 -10 11q0 1 63 76q13 17 28.5 41t34.5 56
q46 79 46 120q0 6 -1 8l-48 -7q-22 -3 -22 9q0 5 5 13l69 77q12 13 12 21q0 9 -11 9t-18 -6l-84 -64q-7 -7 -15 -7q-9 0 -9 19v60q-65 23 -65 53q0 18 25 36q20 14 40 20v60q0 14 10 14q6 0 20 -9l82 -61q4 -4 12 -4q12 0 12 10q0 3 -5 11l-68 77q-12 13 -12 22t16 8l50 -4
q1 1 1 7q0 34 -42 112q-38 73 -66 104q-64 73 -64 79q0 10 13 10q7 0 54 -38q60 -50 108 -108q63 -78 94 -166l71 11q2 1 8 1q14 0 14 -10q0 -8 -8 -19l-62 -88q-4 -4 -4 -12q0 -11 10 -11q7 0 18 8l79 69q11 8 17 8q13 0 13 -18v-64q65 -30 65 -55zM386 441l-70 -16
q-1 12 -9 33t-22 50q-29 63 -50 81v-53q17 -36 38 -113l-67 12l-2 -2l61 -64v29h23v34h2l20 -34h24v-32h4zM524 276q0 8 -27 22q-13 5 -22 8.5t-16 4.5v59l-79 -60v-2h48v-21q11 0 31 -11q-14 -11 -31 -13v-22h-46v-2l77 -57v58q12 0 38 12q27 13 27 24zM351 277
q0 21 -15.5 36.5t-37.5 15.5q-21 0 -37.5 -15.5t-16.5 -36.5t16.5 -36.5t37.5 -15.5q22 0 37.5 15.5t15.5 36.5zM219 241l-3 2h-45v21q-11 0 -31 11q14 11 31 13v22h44l1 2l-76 57v-58q-13 0 -38 -12q-27 -14 -27 -24q0 -9 28 -22q12 -5 21 -8.5t16 -4.5v-57zM385 110
l-50 75h-2v-32h-24l-20 -34h-2v34h-23v29l-61 -64l2 -2l67 12l-16 -58q-5 -16 -10.5 -30t-11.5 -25v-53q21 20 50 80q30 62 31 84z" />
    <glyph glyph-name="uni0640.narrow" horiz-adv-x="65" 
d="M-2 0q-16 0 -22 8t-6 18v59q0 11 7 21t21 10h70q16 0 22 -8t6 -19v-61q0 -8 -6.5 -18t-20.5 -10h-71z" />
    <glyph glyph-name="uni0640.long" horiz-adv-x="234" 
d="M-2 0q-16 0 -22 8t-6 18v59q0 11 7 21t21 10h238q16 0 22 -8t6 -19v-61q0 -8 -6.5 -18t-20.5 -10h-239z" />
    <glyph glyph-name="uni064C0651" 
d="M1 832q-11 -14 -27 -23.5t-35 -9.5q-37 0 -59.5 23.5t-22.5 61.5v78h40v-80q0 -22 12.5 -32.5t30.5 -10.5q17 0 29 12.5t12 30.5v67h39v-67q0 -18 12 -30.5t29 -12.5q18 0 30.5 10.5t12.5 32.5v80h40v-78q0 -38 -23.5 -61.5t-58.5 -23.5q-19 0 -35 9.5t-26 23.5zM1 1079
q20 0 37 7q-18 14 -27.5 32t-9.5 35q0 30 20 49.5t47 19.5q26 0 43.5 -16t17.5 -50q0 -27 -13.5 -47.5t-33 -34.5t-42 -21.5t-40.5 -7.5q-23 0 -47 10.5t-44 40.5l-42 -40l-21 22l63 64q19 -26 41.5 -44.5t50.5 -18.5zM34 1154q0 -11 6 -25t25 -28q14 10 23.5 23t9.5 30
t-9.5 26t-20.5 9q-15 0 -24.5 -9.5t-9.5 -25.5z" />
    <glyph glyph-name="uni064D0651" 
d="M1 1133q-11 -14 -27 -23.5t-35 -9.5q-37 0 -59.5 23.5t-22.5 61.5v78h40v-80q0 -22 12.5 -32.5t30.5 -10.5q17 0 29 12.5t12 30.5v67h39v-67q0 -18 12 -30.5t29 -12.5q18 0 30.5 10.5t12.5 32.5v80h40v-78q0 -38 -23.5 -61.5t-58.5 -23.5q-19 0 -35 9.5t-26 23.5z
M-102 828q55 20 106 38t105 37v-46q-55 -20 -106 -38t-105 -37v46zM-102 930q55 20 106 38t105 37v-46q-55 -20 -106 -38t-105 -36v45z" />
    <glyph glyph-name="uni064B0651" 
d="M1 832q-11 -14 -27 -23.5t-35 -9.5q-37 0 -59.5 23.5t-22.5 61.5v78h40v-80q0 -22 12.5 -32.5t30.5 -10.5q17 0 29 12.5t12 30.5v67h39v-67q0 -18 12 -30.5t29 -12.5q18 0 30.5 10.5t12.5 32.5v80h40v-78q0 -38 -23.5 -61.5t-58.5 -23.5q-19 0 -35 9.5t-26 23.5z
M-104 1091q55 20 106 38t105 37v-46q-55 -20 -106 -38t-105 -37v46zM-104 1193q55 20 106 38t105 37v-46q-55 -20 -106 -38t-105 -36v45z" />
    <glyph glyph-name="uni064E0651" 
d="M2 832q-11 -14 -27 -23.5t-35 -9.5q-37 0 -59.5 23.5t-22.5 61.5v78h40v-80q0 -22 12.5 -32.5t30.5 -10.5q17 0 29 12.5t12 30.5v67h39v-67q0 -18 12 -30.5t29 -12.5q18 0 30.5 10.5t12.5 32.5v80h40v-78q0 -38 -23.5 -61.5t-58.5 -23.5q-19 0 -35 9.5t-26 23.5z
M-112 1088q55 20 106 38t105 37v-46q-55 -20 -106 -38t-105 -37v46z" />
    <glyph glyph-name="uni064F0651" 
d="M1 832q-11 -14 -27 -23.5t-35 -9.5q-37 0 -59.5 23.5t-22.5 61.5v78h40v-80q0 -22 12.5 -32.5t30.5 -10.5q17 0 29 12.5t12 30.5v67h39v-67q0 -18 12 -30.5t29 -12.5q18 0 30.5 10.5t12.5 32.5v80h40v-78q0 -38 -23.5 -61.5t-58.5 -23.5q-19 0 -35 9.5t-26 23.5z
M-20 1066q17 0 41 8q-18 14 -28 33t-10 36q0 30 20.5 50t47.5 20q28 0 46 -16t18 -51q0 -27 -13.5 -48.5t-34 -36.5t-44.5 -22.5t-45 -7.5q-28 0 -53.5 4.5t-48.5 11.5l9 34q22 -7 44 -11t51 -4zM16 1144q0 -14 6.5 -27.5t25.5 -28.5q15 10 25 24t10 32q0 17 -9.5 26
t-22.5 9q-14 0 -24.5 -9.5t-10.5 -25.5z" />
    <glyph glyph-name="uni06500651" 
d="M-102 828q55 20 106 38t105 37v-46q-55 -20 -106 -38t-105 -37v46zM1 999q-11 -14 -27 -23.5t-35 -9.5q-37 0 -59.5 23.5t-22.5 61.5v78h40v-80q0 -22 12.5 -32.5t30.5 -10.5q17 0 29 12.5t12 30.5v67h39v-67q0 -18 12 -30.5t29 -12.5q18 0 30.5 10.5t12.5 32.5v80h40
v-78q0 -38 -23.5 -61.5t-58.5 -23.5q-19 0 -35 9.5t-26 23.5z" />
    <glyph glyph-name="uni06510670" 
d="M1 832q-11 -14 -27 -23.5t-35 -9.5q-37 0 -59.5 23.5t-22.5 61.5v78h40v-80q0 -22 12.5 -32.5t30.5 -10.5q17 0 29 12.5t12 30.5v67h39v-67q0 -18 12 -30.5t29 -12.5q18 0 30.5 10.5t12.5 32.5v80h40v-78q0 -38 -23.5 -61.5t-58.5 -23.5q-19 0 -35 9.5t-26 23.5z
M-14 1197h35v-173h-35v173z" />
    <glyph glyph-name="uni06540651" 
d="M61 923q-18 5 -36 5q-15 0 -25 -8.5t-10 -25.5q0 -15 13.5 -28t42.5 -13h31v-53h-169v53h45q-8 11 -15 24t-7 30q0 29 22 51t67 22q12 0 25.5 -2t24.5 -5zM-102 1078q55 20 106 38t105 37v-46q-55 -20 -106 -38t-105 -37v46zM-102 1180q55 20 106 38t105 37v-46
q-55 -20 -106 -38t-105 -36v45z" />
    <glyph glyph-name="uni0654064E" 
d="M61 923q-18 5 -36 5q-15 0 -25 -8.5t-10 -25.5q0 -15 13.5 -28t42.5 -13h31v-53h-169v53h45q-8 11 -15 24t-7 30q0 29 22 51t67 22q12 0 25.5 -2t24.5 -5zM-101 1078q55 20 106 38t105 37v-46q-55 -20 -106 -38t-105 -37v46z" />
    <glyph glyph-name="uni0654064C" 
d="M61 923q-18 5 -36 5q-15 0 -25 -8.5t-10 -25.5q0 -15 13.5 -28t42.5 -13h31v-53h-169v53h45q-8 11 -15 24t-7 30q0 29 22 51t67 22q12 0 25.5 -2t24.5 -5zM-29 1083q20 0 37 7q-18 14 -27.5 32t-9.5 35q0 30 20 49.5t47 19.5q26 0 43.5 -16t17.5 -50q0 -27 -13.5 -47.5
t-33 -34.5t-42 -21.5t-40.5 -7.5q-23 0 -47 10.5t-44 40.5l-42 -40l-21 22l63 64q19 -26 41.5 -44.5t50.5 -18.5zM4 1158q0 -11 6 -25t25 -28q14 10 23.5 23t9.5 30t-9.5 26t-20.5 9q-15 0 -24.5 -9.5t-9.5 -25.5z" />
    <glyph glyph-name="uni0654064F" 
d="M61 923q-18 5 -36 5q-15 0 -25 -8.5t-10 -25.5q0 -15 13.5 -28t42.5 -13h31v-53h-169v53h45q-8 11 -15 24t-7 30q0 29 22 51t67 22q12 0 25.5 -2t24.5 -5zM-26 1062q17 0 41 8q-18 14 -28 33t-10 36q0 30 20.5 50t47.5 20q28 0 46 -16t18 -51q0 -27 -13.5 -48.5
t-34 -36.5t-44.5 -22.5t-45 -7.5q-28 0 -53.5 4.5t-48.5 11.5l9 34q22 -7 44 -11t51 -4zM10 1140q0 -14 6.5 -27.5t25.5 -28.5q15 10 25 24t10 32q0 17 -9.5 26t-22.5 9q-14 0 -24.5 -9.5t-10.5 -25.5z" />
    <glyph glyph-name="uni06540652" 
d="M61 923q-18 5 -36 5q-15 0 -25 -8.5t-10 -25.5q0 -15 13.5 -28t42.5 -13h31v-53h-169v53h45q-8 11 -15 24t-7 30q0 29 22 51t67 22q12 0 25.5 -2t24.5 -5zM-87 1117q0 36 25 61.5t62 25.5t62.5 -25.5t25.5 -61.5q0 -38 -25.5 -63.5t-62.5 -25.5t-62 25.5t-25 63.5z
M-56 1116q0 -24 16.5 -39.5t39.5 -15.5t39 15.5t16 39.5q0 23 -16 39t-39 16t-39.5 -16t-16.5 -39z" />
    <glyph glyph-name="uni06550650" 
d="M61 -141q-18 5 -36 5q-15 0 -25 -8.5t-10 -25.5q0 -15 13.5 -28t42.5 -13h31v-53h-169v53h45q-8 11 -15 24t-7 30q0 29 22 51t67 22q12 0 25.5 -2t24.5 -5zM-102 -435q55 20 106 38t105 37v-46q-55 -19 -106 -37t-105 -37v45z" />
    <glyph glyph-name="uni0655064D" 
d="M61 -141q-18 5 -36 5q-15 0 -25 -8.5t-10 -25.5q0 -15 13.5 -28t42.5 -13h31v-53h-169v53h45q-8 11 -15 24t-7 30q0 29 22 51t67 22q12 0 25.5 -2t24.5 -5zM-102 -529q55 20 106 38t105 37v-46q-55 -20 -106 -38t-105 -37v46zM-102 -427q55 20 106 38t105 37v-46
q-55 -19 -106 -37t-105 -37v45z" />
    <glyph glyph-name="uni064406440647" horiz-adv-x="1118" 
d="M225 0q-61 0 -103.5 17.5t-69.5 46t-39 64.5t-12 73q0 47 16 89.5t44 74.5t67 50.5t86 18.5q43 0 78.5 -14.5t61 -41t39 -63t13.5 -80.5v-119h145q22 0 29.5 14t7.5 38v548h115v-508q0 -40 18.5 -66t69.5 -26h138v600h113v-716h-255q-43 0 -69.5 20.5t-40.5 45.5
q-17 -33 -48 -49.5t-73 -16.5h-331zM292 116v89q0 57 -21.5 87.5t-63.5 30.5q-18 0 -34.5 -7.5t-29.5 -21t-21 -32.5t-8 -43q0 -28 9 -47.5t24 -32t34.5 -18t40.5 -5.5h70z" />
    <glyph glyph-name="uniFDFA.Farsi" horiz-adv-x="1057" 
d="M441 437q19 7 31 11.5t18 9.5t8 11t2 16q0 12 -5.5 29t-13.5 36.5t-18.5 39.5t-20.5 38l9 35q2 8 6 8q3 0 11 -14l62 -131q9 -20 16.5 -32.5t19 -19.5t30 -9.5t49.5 -2.5q49 0 69.5 8t26.5 16q5 8 1 17q-1 7 4 7t10 -8t12 -17t17.5 -17t27.5 -8q27 33 54.5 51.5
t53.5 18.5q21 0 35.5 -10t28.5 -42q4 -8 6.5 -12.5t7.5 -6.5l-10 -33q-2 -8 -9.5 -9.5t-16.5 -2.5l-109 -5h-12h-21t-17 2q-14 -21 -20.5 -29.5t-10.5 -8.5t-2 8.5t14 33.5q-9 7 -20.5 21t-16.5 33h-2q-3 -14 -8.5 -24t-18 -16.5t-35 -10t-59.5 -3.5q-25 0 -42.5 2.5
t-29.5 9t-19.5 18t-12.5 29.5h-2q-3 -12 -11 -23t-15 -16v-2q12 0 28 -6t16 -13l-10 -36q-34 -27 -70.5 -43t-69.5 -16q-48 0 -74.5 29.5t-22.5 98.5q-22 4 -45 44q-14 -50 -45 -50q-22 0 -35 10.5t-24 33.5q-21 -15 -38 -19.5t-28.5 -3t-18 7t-6.5 10.5q0 16 6.5 29
t14.5 18q22 13 27 17t5 10q0 3 -2.5 8t-10.5 13l6 29q2 11 6 11q7 0 18 -18t35 -72q7 -16 19.5 -24t24.5 -9t21 3.5t9 12.5q0 5 -4.5 16t-11 23.5t-14.5 26t-15 23.5l8 25q5 11 9 11q1 0 6.5 -8t12 -20t14 -26t13.5 -26q18 -36 32 -47.5t28 -11.5l19 3q-29 35 -45.5 56.5
t-25 34.5t-10.5 20.5t-2 13.5q0 11 5.5 25.5t11.5 14.5q4 0 10 -12q2 -8 12.5 -20t21.5 -20q12 -11 12 -13q0 -7 -20 -7q26 -36 39.5 -60.5t13.5 -57.5q0 -19 -16 -25t-31 -1q1 -19 11.5 -34t25.5 -25t31.5 -15t30.5 -4q22 1 47 6.5t50 16.5v4q-35 3 -51 7t-20 7zM174 89
q4 15 7 15q2 0 6.5 -6t11.5 -23l45 -99q7 -16 18 -27.5t29 -18.5t44.5 -10.5t64.5 -3.5q94 0 153.5 7.5t93 16t46.5 16t15 7.5q3 0 8.5 -4.5t12.5 -10t15 -10t17 -4.5l13 2q0 24 2.5 34.5t6.5 10.5t4 -7q0 -14 12.5 -28t34.5 -14l-18 26q2 13 5.5 22t7.5 9t9.5 -5.5t10 -14
t7.5 -18t3 -16.5q0 -20 -7 -32t-17.5 -16t-22.5 -1t-21 14q-9 -12 -20.5 -15t-23 0.5t-22 12t-17.5 18.5q-17 -10 -50.5 -19t-75.5 -16t-89.5 -11t-93.5 -4q-42 0 -71 3.5t-48.5 11.5t-31.5 21t-19 32h-2q-4 -14 -13 -25.5t-22 -11.5q-8 -25 -17.5 -36.5t-23.5 -11.5
q-11 0 -21 9t-12 34h-2q-6 -12 -18.5 -21.5t-26 -16.5t-25 -10.5t-15.5 -3.5q-5 0 -5 2q0 4 12 9q6 2 18 12.5t24.5 25.5t22.5 32.5t11 32.5q5 3 9.5 12.5t4.5 18.5t6 11q4 0 11.5 -7t20.5 -26q8 -12 14.5 -16t14.5 -4q19 0 19 16q0 7 -4.5 20.5t-11 29t-14.5 31t-15 26.5z
M739 390q5 11 6 11q2 0 5 -3.5t5 -7.5l65 -150q7 -18 20.5 -32t28.5 -14q0 12 3.5 25.5t10.5 25t16.5 19.5t21.5 8q10 0 19.5 -6.5t16.5 -15.5t11.5 -17t4.5 -11q0 -5 -3 -5t-7 3l-10 7q-14 11 -33 11q-11 0 -19 -4.5t-8 -13.5q0 -6 4 -11t9 -8.5t10 -6t7 -2.5l53 3
q13 0 13 -8q0 -7 -11 -31q-6 -1 -22 -3t-33.5 -3.5t-33 -3t-21.5 -1.5q-19 0 -33.5 8.5t-27.5 40.5h-2q-8 -29 -19 -39.5t-21 -10.5q-17 0 -28.5 9.5t-12.5 20.5h-2q-4 -18 -18 -26t-36 -8t-44 11t-30 31q-22 -14 -42.5 -20t-37.5 -6q-16 1 -25.5 6.5t-9.5 15.5q0 2 1.5 8
t3.5 12.5t5 12t6 7.5l57 42l-15 25l6 28q1 4 2.5 7.5t5.5 3.5q6 0 10 -10l48 -91q7 -13 22.5 -21.5t33 -11.5t33 -0.5t21.5 10.5l5 28q1 10 5 10q5 0 5 -9q0 -8 6 -17t14.5 -14.5t18 -6t16.5 8.5q0 13 -2 26.5t-8.5 31t-17.5 42t-29 59.5zM96 236q3 3 5 9.5t3 11.5
q1 13 5 13q5 0 10 -12l33 -67q7 -14 16 -23t27 -9q13 0 13 4q0 6 -10.5 24.5t-22.5 39.5t-22.5 40.5t-10.5 27.5q0 4 1.5 10.5t4 12.5t5 10.5t4.5 4.5q5 0 8 -7q2 -6 12 -19.5t21 -24.5q7 -6 9 -9t2 -4q0 -7 -18 -7q12 -23 19.5 -37.5t11.5 -24.5t5.5 -17.5t1.5 -16.5
q0 -55 -37 -55q-22 0 -34.5 10t-19.5 33q-28 -17 -49 -17q-17 0 -23.5 3.5t-6.5 9.5q0 7 1.5 17t4.5 14q4 6 16 17t26 19zM401 417l-2 12q-1 6 -3.5 13.5t-6.5 18t-11 25.5t-17 37q-25 52 -36.5 78.5t-10.5 35.5q2 25 7 36.5t8 11.5q4 0 7 -8q1 -2 5.5 -8t10.5 -13.5
t13 -14.5t13 -11q12 -9 12 -12q0 -6 -33 -1q15 -33 25 -57t16 -42.5t8.5 -34t2.5 -30.5q0 -8 -0.5 -16t-4.5 -18zM251 270q25 -50 34.5 -76.5t9.5 -45.5q0 -7 -3 -23t-5 -23q-3 -8 -7 -8l-2 1v8q0 16 -2 29.5t-7 24.5l-47 93q-6 14 -12 30.5t-6 21.5q0 3 1.5 10t4 13.5
t5.5 11.5t6 5q2 0 7 -9q1 -4 6 -11.5t11.5 -15.5t13 -15t9.5 -8q8 -5 10.5 -8t2.5 -5q0 -4 -10 -4q-3 0 -8.5 1.5t-9.5 4.5zM441 181q0 -23 -6 -37.5t-14.5 -23t-17 -11.5t-14.5 -3q-27 0 -49.5 2t-22.5 4q0 3 5 4.5t16 4.5q9 1 23 7.5t28 14.5t24 17t10 15q0 3 -3 6.5
t-7 5.5q-5 -2 -13 -2.5t-15 1t-12 6t-5 12.5q0 3 1.5 12t5.5 18.5t9.5 16.5t13.5 7q12 0 27.5 -19.5t15.5 -57.5zM984 -83q0 -23 -6 -37.5t-14.5 -23t-17 -11.5t-13.5 -3q-10 0 -22.5 1t-23.5 2.5t-18.5 3t-8.5 2.5q-5 2 -5 3q0 3 5 3q18 2 37 8t34.5 13.5t25 16t9.5 16.5
q0 3 -3.5 7t-6.5 5q-5 -1 -12.5 -1.5t-14.5 1t-12 5.5t-5 12q0 18 8 35.5t21 17.5q12 0 27.5 -18.5t15.5 -57.5zM938 666q-20 -12 -47 -25.5t-55.5 -26.5t-55.5 -25t-48 -21q9 -6 7.5 -16.5t-7.5 -21t-13.5 -18t-11.5 -8.5h-5l-1 2q0 3 2 6.5t4 7.5l4 9q2 8 2 9
q0 6 -3.5 8.5t-8 3t-8 0.5t-3.5 2q0 3 3.5 8.5t17.5 16.5l19 15l225 99zM377 5l154 61q23 10 42 20t32 17q6 4 8 2t-1 -6l-12 -16q-12 -10 -40.5 -25t-60.5 -29l-104 -43q6 -9 4 -18t-7.5 -16.5t-13 -12t-12.5 -4.5q11 14 9 26.5t-13 14.5q-4 0 -4.5 3t1.5 5zM574 636
q20 7 46 17.5t53.5 22.5t54 24.5t47.5 23.5q-9 -26 -42 -41l-181 -83zM683 104l41 -21l14 28l40 -24l-22 -38l-35 19l-17 -26l-40 19zM172 392q10 0 23 5.5t26 11.5t23 11.5t13 5.5q8 0 14.5 -5t6.5 -11q0 -5 -2.5 -9.5t-4.5 -7.5q-6 7 -16 7q-6 0 -14.5 -5.5t-18.5 -11.5
t-21 -11.5t-21 -5.5q0 -17 -1.5 -24t-4.5 -8q-2 14 -13 27t-24 18q-7 25 2 25q4 0 13.5 -6t19.5 -6zM910 494q-20 0 -41.5 -13t-29.5 -25h34q27 0 53.5 1t43.5 4q-2 4 -8.5 9.5t-15.5 10.5t-19 9t-17 4zM971 92q6 3 13.5 7t10.5 6q-1 -9 -7 -19.5t-14 -13.5l-135 -64l9 27z
M615 -143q7 0 10.5 -5.5t9.5 -5.5q11 0 15.5 8.5t6.5 8.5q4 0 4 -6.5t8 -6.5l4 1q0 11 7 14q3 -3 3 -10q0 -18 -12 -21t-18 5q-6 -11 -23 -11q-9 0 -10.5 5.5t-9.5 5.5q-4 0 -10.5 -5t-17.5 -11q-10 -7 -24.5 -12t-34.5 -5q-30 0 -30 5q0 3 9 3q20 0 38.5 6.5t33.5 15
t25.5 15t15.5 6.5zM990 379l-12 -22q-2 -5 -15 -11l-134 -61l11 25zM169 675q7 0 7 7q0 4 -2.5 8.5t-2.5 7.5q0 9 5 9q4 0 6 -6q4 -15 9 -19t13 -3q-2 2 -4.5 9t-2.5 9q0 9 8 15q13 -17 13 -33q0 -18 -11.5 -19t-18.5 4q-3 -6 -10 -8.5t-14 0t-12.5 9t-5.5 18.5q0 16 9 16
q0 -24 14 -24zM393 285q-8 -6 -17 -12.5t-35 -20.5l-52 -28l10 25q8 3 23 11t32 17t32 18.5t23 15.5zM562 247q-6 -12 -21 -24.5t-33 -21.5v-2q20 -1 39 -1t39 3zM115 539q-6 -10 -17 -20t-19 -15q5 -5 22.5 -4t31.5 3zM116 204l-35 -30q15 -3 26 -3q6 0 12.5 1.5t11.5 2.5z
M134 -59q0 -14 5.5 -30.5t19.5 -16.5q7 0 14 4z" />
    <glyph glyph-name="uni0660.pnum" horiz-adv-x="499" 
d="M307 1h-117v120h117v-120z" />
    <glyph glyph-name="uni0661.pnum" horiz-adv-x="299" 
d="M93 623h114v-623h-114v623z" />
    <glyph glyph-name="uni0662.pnum" horiz-adv-x="369" 
d="M38 623h325v-111h-196l62 -512h-109z" />
    <glyph glyph-name="uni0663.pnum" horiz-adv-x="482" 
d="M39 623h112l12 -107q5 -1 9 -1.5t6 -0.5q26 0 34.5 30.5t8.5 79.5h106v-13q0 -25 -2.5 -49.5t-10.5 -46.5q5 -1 7 -1h4q26 0 34.5 30.5t8.5 79.5h106v-15q0 -33 -7 -66.5t-22.5 -60.5t-40.5 -44t-61 -17q-17 0 -37 4t-44 15q-28 -19 -66 -19h-10t-10 1l53 -422h-111z" />
    <glyph glyph-name="uni0664.pnum" horiz-adv-x="378" 
d="M237 267q-13 -16 -27.5 -34.5t-26.5 -37t-20 -36.5t-8 -33q0 -11 23.5 -18t58.5 -7q26 0 57 6.5t64 17.5v-110q-17 -8 -37 -13.5t-39.5 -8.5t-35.5 -4.5t-25 -1.5q-85 0 -132 27.5t-47 81.5q0 42 28.5 99t79.5 117q-29 15 -47 27.5t-28.5 24.5t-14.5 24t-4 26q0 17 10 48
t35.5 64.5t69 65t109.5 49.5v-111q-38 -13 -63 -27t-40 -26.5t-21 -22.5t-6 -15q0 -3 15 -10.5l33 -16.5q15 -8 30 -16.5t27 -18.5t19.5 -20.5t7.5 -21.5t-12.5 -28.5t-32.5 -39.5z" />
    </font>
</defs>
</svg>
