<?xml version="1.0" standalone="no"?>
<!DOCTYPE svg PUBLIC "-//W3C//DTD SVG 1.1//EN" "http://www.w3.org/Graphics/SVG/1.1/DTD/svg11.dtd" >
<svg xmlns="http://www.w3.org/2000/svg" xmlns:xlink="http://www.w3.org/1999/xlink" version="1.1">
<metadata>
Created by FontForge 20170731 at Thu Jul  3 18:07:05 2008
 By Aleksey,,,
Part of the digitally encoded machine readable outline data for producing the Typefaces provided is copyrighted (c) 1988 - 2007 Linotype GmbH, www.linotype.com. All rights reserved. This software is the property of Linotype GmbH, and may not be reproduced, used, displayed, modified, disclosed or transferred without the express written approval of Linotype GmbH. The digitally encoded machine readable software for producing the Typefaces licensed to you is copyrighted (c) 1989, 1990 Adobe Systems. All Rights Reserved. This software is the property of Adobe Systems Incorporated and its licensors, and may not be reproduced, used, displayed, modified, disclosed or transferred without the express written approval of Adobe. 
</metadata>
<defs>
<font id="JannaLT-Regular" horiz-adv-x="556" >
  <font-face 
    font-family="Janna LT"
    font-weight="400"
    font-stretch="normal"
    units-per-em="1000"
    panose-1="1 0 0 0 0 0 0 0 0 0"
    ascent="764"
    descent="-236"
    x-height="468"
    cap-height="708"
    bbox="-185 -593 1278 1286"
    underline-thickness="24"
    underline-position="-85"
    unicode-range="U+000D-FEFC"
  />
<missing-glyph horiz-adv-x="505" 
d="M219 115v66h55v-66h-55zM222 231l-2 16q0 28 3.5 48t8.5 32q13 25 47 59q15 15 25 26.5t14 19.5q9 18 9 35q0 35 -22 60q-21 24 -53 24q-30 0 -52.5 -21t-28.5 -72l-48 7q6 70 43 103t89 33q27 0 48.5 -9.5t38.5 -26.5q36 -36 36 -94q0 -31 -13 -58q-10 -22 -49 -60
q-35 -32 -43 -51q-6 -18 -6 -71h-45zM456 49v608h-407v-608h407zM505 708v-708h-505v708h505z" />
    <glyph glyph-name="uniFEF5" unicode="&#xfedf;&#xfe82;" horiz-adv-x="666" arabic-form="isolated" 
d="M586 717v-717h-553v81h218v438h79v-438h176v636h80zM103 680q24 25 45.5 34.5t45.5 9.5q15 0 38 -8.5t48 -19.5q26 -11 50.5 -20.5t44.5 -9.5q22 0 35 15t20 33l39 -20q-18 -39 -38 -55.5t-60 -16.5q-23 0 -45.5 8.5t-45.5 19.5t-45 19.5t-46 8.5q-14 0 -29 -7.5
t-29 -19.5z" />
    <glyph glyph-name="uniFEF6" unicode="&#xfee0;&#xfe82;" horiz-adv-x="712" arabic-form="final" 
d="M719 81q23 0 23 -18v-39q0 -24 -23 -24h-25q-20 0 -38.5 3.5t-34.5 12.5t-28.5 24t-19.5 38q-11 -26 -24.5 -41.5t-29.5 -23.5t-34 -10.5t-37 -2.5h-418v81h218v438h79v-438h116q37 0 48.5 20.5t11.5 55.5v560h80v-518q0 -25 5.5 -46.5t19 -37.5t35 -25t54.5 -9h22z
M78 680q24 25 45.5 34.5t45.5 9.5q15 0 38 -8.5t48 -19.5q26 -11 50.5 -20.5t44.5 -9.5q22 0 35 15t20 33l39 -20q-18 -39 -38 -55.5t-60 -16.5q-23 0 -45.5 8.5t-45.5 19.5t-45 19.5t-46 8.5q-14 0 -29 -7.5t-29 -19.5z" />
    <glyph glyph-name="uniFEF7" unicode="&#xfedf;&#xfe84;" horiz-adv-x="666" arabic-form="isolated" 
d="M586 717v-717h-553v81h218v438h79v-438h176v636h80zM354 800q-11 3 -25 3q-23 0 -39 -11t-16 -34q0 -22 19 -41t61 -19h10v-37h-152v37h57q-20 15 -26.5 34.5t-6.5 30.5q0 32 23 54.5t65 22.5q15 0 36 -3z" />
    <glyph glyph-name="uniFEF8" unicode="&#xfee0;&#xfe84;" horiz-adv-x="712" arabic-form="final" 
d="M719 81q23 0 23 -18v-39q0 -24 -23 -24h-25q-20 0 -38.5 3.5t-34.5 12.5t-28.5 24t-19.5 38q-11 -26 -24.5 -41.5t-29.5 -23.5t-34 -10.5t-37 -2.5h-418v81h218v438h79v-438h116q37 0 48.5 20.5t11.5 55.5v560h80v-518q0 -25 5.5 -46.5t19 -37.5t35 -25t54.5 -9h22z
M350 800q-11 3 -25 3q-23 0 -39 -11t-16 -34q0 -22 19 -41t61 -19h10v-37h-152v37h57q-20 15 -26.5 34.5t-6.5 30.5q0 32 23 54.5t65 22.5q15 0 36 -3z" />
    <glyph glyph-name="uniFEF9" unicode="&#xfedf;&#xfe88;" horiz-adv-x="666" arabic-form="isolated" 
d="M586 717v-717h-553v81h218v438h79v-438h176v636h80zM353 -123q-11 3 -25 3q-23 0 -39 -11t-16 -34q0 -22 19 -41t61 -19h10v-37h-152v37h57q-20 15 -26.5 34.5t-6.5 30.5q0 32 23 54.5t65 22.5q15 0 36 -3z" />
    <glyph glyph-name="uniFEFA" unicode="&#xfee0;&#xfe88;" horiz-adv-x="712" arabic-form="final" 
d="M719 81q23 0 23 -18v-39q0 -24 -23 -24h-25q-20 0 -38.5 3.5t-34.5 12.5t-28.5 24t-19.5 38q-11 -26 -24.5 -41.5t-29.5 -23.5t-34 -10.5t-37 -2.5h-418v81h218v438h79v-438h116q37 0 48.5 20.5t11.5 55.5v560h80v-518q0 -25 5.5 -46.5t19 -37.5t35 -25t54.5 -9h22z
M353 -123q-11 3 -25 3q-23 0 -39 -11t-16 -34q0 -22 19 -41t61 -19h10v-37h-152v37h57q-20 15 -26.5 34.5t-6.5 30.5q0 32 23 54.5t65 22.5q15 0 36 -3z" />
    <glyph glyph-name="uniFEFB" unicode="&#xfedf;&#xfe8e;" horiz-adv-x="666" arabic-form="isolated" 
d="M586 717v-717h-553v81h218v438h79v-438h176v636h80z" />
    <glyph glyph-name="uniFEFC" unicode="&#xfee0;&#xfe8e;" horiz-adv-x="712" arabic-form="final" 
d="M719 81q23 0 23 -18v-39q0 -24 -23 -24h-25q-20 0 -38.5 3.5t-34.5 12.5t-28.5 24t-19.5 38q-11 -26 -24.5 -41.5t-29.5 -23.5t-34 -10.5t-37 -2.5h-418v81h218v438h79v-438h116q37 0 48.5 20.5t11.5 55.5v560h80v-518q0 -25 5.5 -46.5t19 -37.5t35 -25t54.5 -9h22z" />
    <glyph glyph-name="uni06440671" unicode="&#xfedf;&#xfb51;" horiz-adv-x="666" 
d="M353 678q0 24 -10 33.5t-27 9.5q-9 0 -19.5 -3t-19.5 -9.5t-15 -16.5t-6 -24v-7h97v17zM182 627v34h40v82h33v-24q12 16 29.5 25t35.5 9q32 0 49 -20.5t17 -52.5v-53h-204zM586 717v-717h-553v81h218v438h79v-438h176v636h80z" />
    <glyph glyph-name="uni06440671.fina" unicode="&#xfee0;&#xfb51;" horiz-adv-x="723" 
d="M353 678q0 24 -10 33.5t-27 9.5q-9 0 -19.5 -3t-19.5 -9.5t-15 -16.5t-6 -24v-7h97v17zM182 627v34h40v82h33v-24q12 16 29.5 25t35.5 9q32 0 49 -20.5t17 -52.5v-53h-204zM719 81q23 0 23 -18v-39q0 -24 -23 -24h-25q-20 0 -38.5 3.5t-34.5 12.5t-28.5 24t-19.5 38
q-11 -26 -24.5 -41.5t-29.5 -23.5t-34 -10.5t-37 -2.5h-418v81h218v438h79v-438h116q37 0 48.5 20.5t11.5 55.5v560h80v-518q0 -25 5.5 -46.5t19 -37.5t35 -25t54.5 -9h22z" />
    <glyph glyph-name="uni0621" unicode="&#x621;" horiz-adv-x="394" arabic-form="isolated" 
d="M334 72v-72h-290v72h101q-26 19 -41.5 49t-15.5 61q0 57 39 96t120 39q17 0 36 -1.5t36 -6.5q-3 -20 -6 -34.5t-7 -34.5q-21 3 -52 3q-38 0 -65.5 -16t-27.5 -54q0 -18 8.5 -36t25 -32.5t42 -23.5t59.5 -9h38z" />
    <glyph glyph-name="uni0622" unicode="&#x622;" horiz-adv-x="237" arabic-form="isolated" 
d="M80 717h77v-717h-77v717zM-73 856q24 25 45.5 34.5t45.5 9.5q15 0 38 -8.5t48 -19.5q26 -11 50.5 -20.5t44.5 -9.5q22 0 35 15t20 33l39 -20q-18 -39 -38 -55.5t-60 -16.5q-23 0 -45.5 8.5t-45.5 19.5t-45 19.5t-46 8.5q-14 0 -29 -7.5t-29 -19.5z" />
    <glyph glyph-name="uni0623" unicode="&#x623;" horiz-adv-x="237" arabic-form="isolated" 
d="M80 717h77v-717h-77v717zM179 937q-11 3 -25 3q-23 0 -39 -11t-16 -34q0 -22 19 -41t61 -19h10v-37h-152v37h57q-20 15 -26.5 34.5t-6.5 30.5q0 32 23 54.5t65 22.5q15 0 36 -3z" />
    <glyph glyph-name="uni0624" unicode="&#x624;" horiz-adv-x="522" arabic-form="isolated" 
d="M282 0q-59 0 -100.5 17t-67 44t-37 61.5t-11.5 69.5q0 46 15 87.5t42 72.5t64 49t82 18q42 0 76 -14t58 -39t36.5 -60.5t12.5 -77.5v-233q0 -61 -18.5 -104t-52.5 -70t-80.5 -39.5t-101.5 -12.5q-20 0 -42 1t-47 5l8 76q23 -2 44.5 -3.5t41.5 -1.5q34 0 64.5 6t54 23
t37.5 47t15 78h-93zM374 81v115q0 69 -29.5 107.5t-81.5 38.5q-23 0 -44.5 -9t-38.5 -26.5t-27 -41.5t-10 -54q0 -35 11 -60t30 -40.5t43.5 -22.5t51.5 -7h95zM342 689q-6 1 -17 2t-19 1q-31 0 -51.5 -12.5t-20.5 -41.5q0 -14 6 -28t18.5 -25t32 -18t45.5 -7h25v-50h-209v50
h74q-23 21 -32 44.5t-9 41.5q0 19 7.5 36.5t22 31t36 21.5t49.5 8q12 0 24.5 -1t23.5 -3z" />
    <glyph glyph-name="uni0625" unicode="&#x625;" horiz-adv-x="237" arabic-form="isolated" 
d="M80 717h77v-717h-77v717zM176 -123q-11 3 -25 3q-23 0 -39 -11t-16 -34q0 -22 19 -41t61 -19h10v-37h-152v37h57q-20 15 -26.5 34.5t-6.5 30.5q0 32 23 54.5t65 22.5q15 0 36 -3z" />
    <glyph glyph-name="uni0626" unicode="&#x626;" horiz-adv-x="746" arabic-form="isolated" 
d="M563 -9q0 28 -22 52.5t-48 47.5q-17 15 -34 31.5t-31 36t-23 41t-9 45.5q0 45 18 77t46 52.5t62 30.5t66 10q36 0 65.5 -7t42.5 -11q-5 -23 -10 -41t-10 -40l-26 9q-12 4 -29 7t-36 3q-46 0 -77 -19t-31 -62q0 -26 23.5 -52t52.5 -52q16 -15 33 -31.5t30 -34t21.5 -36.5
t8.5 -39q0 -38 -20 -79.5t-62 -76t-107 -57t-154 -22.5q-81 0 -138 23.5t-94 60.5t-54 83t-17 91q0 51 15.5 93.5t40.5 80.5l65 -39q-19 -32 -29 -65.5t-10 -62.5q0 -39 15 -72t44.5 -57t73 -37.5t100.5 -13.5q55 0 100.5 12t78.5 31.5t51 42.5t18 46zM189 505q-6 1 -17 2
t-19 1q-31 0 -51.5 -12.5t-20.5 -41.5q0 -14 6 -28t18.5 -25t32 -18t45.5 -7h25v-50h-209v50h74q-23 21 -32 44.5t-9 41.5q0 19 7.5 36.5t22 31t36 21.5t49.5 8q12 0 24.5 -1t23.5 -3z" />
    <glyph glyph-name="uni0627" unicode="&#x627;" horiz-adv-x="237" arabic-form="isolated" 
d="M80 717h77v-717h-77v717z" />
    <glyph glyph-name="uni0628" unicode="&#x628;" horiz-adv-x="823" arabic-form="isolated" 
d="M144 0q-42 0 -69.5 11t-44 29.5t-23.5 43t-7 51.5v158h79v-137q0 -46 17 -60.5t55 -14.5h513v299h80v-380h-600zM337 -161q0 19 13.5 32.5t32.5 13.5t32.5 -13.5t13.5 -32.5t-13.5 -32.5t-32.5 -13.5t-32.5 13.5t-13.5 32.5z" />
    <glyph glyph-name="uni0629" unicode="&#x629;" horiz-adv-x="457" arabic-form="isolated" 
d="M387 0h-171q-59 0 -100.5 17t-67 44t-37 61.5t-11.5 69.5q0 46 15 87.5t42 72.5t64.5 49t82.5 18q42 0 76 -14t57.5 -39t36.5 -60.5t13 -77.5v-228zM308 81v115q0 69 -29 107.5t-83 38.5q-22 0 -43 -9t-37.5 -26.5t-27 -41.5t-10.5 -54q0 -35 11 -60t30 -40.5t43 -22.5
t51 -7h95zM84 571q0 19 13.5 32.5t32.5 13.5t32.5 -13.5t13.5 -32.5t-13.5 -32.5t-32.5 -13.5t-32.5 13.5t-13.5 32.5zM217 571q0 19 13.5 32.5t32.5 13.5t32.5 -13.5t13.5 -32.5t-13.5 -32.5t-32.5 -13.5t-32.5 13.5t-13.5 32.5z" />
    <glyph glyph-name="uni062A" unicode="&#x62a;" horiz-adv-x="823" arabic-form="isolated" 
d="M144 0q-42 0 -69.5 11t-44 29.5t-23.5 43t-7 51.5v158h79v-137q0 -46 17 -60.5t55 -14.5h513v299h80v-380h-600zM282 571q0 19 13.5 32.5t32.5 13.5t32.5 -13.5t13.5 -32.5t-13.5 -32.5t-32.5 -13.5t-32.5 13.5t-13.5 32.5zM415 571q0 19 13.5 32.5t32.5 13.5t32.5 -13.5
t13.5 -32.5t-13.5 -32.5t-32.5 -13.5t-32.5 13.5t-13.5 32.5z" />
    <glyph glyph-name="uni062B" unicode="&#x62b;" horiz-adv-x="823" arabic-form="isolated" 
d="M144 0q-42 0 -69.5 11t-44 29.5t-23.5 43t-7 51.5v158h79v-137q0 -46 17 -60.5t55 -14.5h513v299h80v-380h-600zM278 571q0 19 13.5 32.5t32.5 13.5t32.5 -13.5t13.5 -32.5t-13.5 -32.5t-32.5 -13.5t-32.5 13.5t-13.5 32.5zM411 571q0 19 13.5 32.5t32.5 13.5t32.5 -13.5
t13.5 -32.5t-13.5 -32.5t-32.5 -13.5t-32.5 13.5t-13.5 32.5zM345 676q0 19 13.5 32.5t32.5 13.5t32.5 -13.5t13.5 -32.5t-13.5 -32.5t-32.5 -13.5t-32.5 13.5t-13.5 32.5z" />
    <glyph glyph-name="uni062C" unicode="&#x62c;" horiz-adv-x="545" arabic-form="isolated" 
d="M241 0q-39 0 -68 -11.5t-48.5 -30t-29 -43t-9.5 -51.5q0 -63 41 -101.5t126 -38.5q22 0 49.5 4t47.5 9q2 -20 5.5 -36t5.5 -33q-20 -8 -57 -14t-74 -6q-42 0 -83 12t-74 37.5t-53 65.5t-20 96q0 52 18 93.5t51.5 70t80.5 43.5t106 15h144q-23 29 -38 68t-19 74
q-8 63 -33.5 89.5t-76.5 26.5q-21 0 -48.5 -5.5t-55.5 -17.5l-21 76q13 4 31 9t37.5 9.5t40 7.5t39.5 3q39 0 68.5 -14t50 -38t32.5 -56.5t17 -69.5q3 -22 6.5 -43.5t11 -41.5t20 -38.5t33.5 -33.5v-86h-254zM222 -146q0 19 13.5 32.5t32.5 13.5t32.5 -13.5t13.5 -32.5
t-13.5 -32.5t-32.5 -13.5t-32.5 13.5t-13.5 32.5z" />
    <glyph glyph-name="uni062D" unicode="&#x62d;" horiz-adv-x="545" arabic-form="isolated" 
d="M241 0q-39 0 -68 -11.5t-48.5 -30t-29 -43t-9.5 -51.5q0 -63 41 -101.5t126 -38.5q22 0 49.5 4t47.5 9q2 -20 5.5 -36t5.5 -33q-20 -8 -57 -14t-74 -6q-42 0 -83 12t-74 37.5t-53 65.5t-20 96q0 52 18 93.5t51.5 70t80.5 43.5t106 15h144q-23 29 -38 68t-19 74
q-8 63 -33.5 89.5t-76.5 26.5q-21 0 -48.5 -5.5t-55.5 -17.5l-21 76q13 4 31 9t37.5 9.5t40 7.5t39.5 3q39 0 68.5 -14t50 -38t32.5 -56.5t17 -69.5q3 -22 6.5 -43.5t11 -41.5t20 -38.5t33.5 -33.5v-86h-254z" />
    <glyph glyph-name="uni062E" unicode="&#x62e;" horiz-adv-x="545" arabic-form="isolated" 
d="M241 0q-39 0 -68 -11.5t-48.5 -30t-29 -43t-9.5 -51.5q0 -63 41 -101.5t126 -38.5q22 0 49.5 4t47.5 9q2 -20 5.5 -36t5.5 -33q-20 -8 -57 -14t-74 -6q-42 0 -83 12t-74 37.5t-53 65.5t-20 96q0 52 18 93.5t51.5 70t80.5 43.5t106 15h144q-23 29 -38 68t-19 74
q-8 63 -33.5 89.5t-76.5 26.5q-21 0 -48.5 -5.5t-55.5 -17.5l-21 76q13 4 31 9t37.5 9.5t40 7.5t39.5 3q39 0 68.5 -14t50 -38t32.5 -56.5t17 -69.5q3 -22 6.5 -43.5t11 -41.5t20 -38.5t33.5 -33.5v-86h-254zM182 571q0 19 13.5 32.5t32.5 13.5t32.5 -13.5t13.5 -32.5
t-13.5 -32.5t-32.5 -13.5t-32.5 13.5t-13.5 32.5z" />
    <glyph glyph-name="uni062F" unicode="&#x62f;" horiz-adv-x="486" arabic-form="isolated" 
d="M46 0v81h290v128q0 42 -10 68.5t-29.5 41.5t-47 20t-62.5 5h-82v77h107q39 0 76 -8t65.5 -30.5t45.5 -61.5t17 -102v-219h-370z" />
    <glyph glyph-name="uni0630" unicode="&#x630;" horiz-adv-x="486" arabic-form="isolated" 
d="M46 0v81h290v128q0 42 -10 68.5t-29.5 41.5t-47 20t-62.5 5h-82v77h107q39 0 76 -8t65.5 -30.5t45.5 -61.5t17 -102v-219h-370zM136 571q0 19 13.5 32.5t32.5 13.5t32.5 -13.5t13.5 -32.5t-13.5 -32.5t-32.5 -13.5t-32.5 13.5t-13.5 32.5z" />
    <glyph glyph-name="uni0631" unicode="&#x631;" horiz-adv-x="331" arabic-form="isolated" 
d="M251 -4q0 -43 -11.5 -80.5t-34.5 -65.5t-56.5 -44t-76.5 -16q-23 0 -42.5 2t-30.5 4q2 21 5 40.5t5 38.5l23 -4q10 -2 20.5 -2.5t19.5 -0.5q58 0 78.5 34t20.5 103v375h80v-384z" />
    <glyph glyph-name="uni0632" unicode="&#x632;" horiz-adv-x="331" arabic-form="isolated" 
d="M251 -4q0 -43 -11.5 -80.5t-34.5 -65.5t-56.5 -44t-76.5 -16q-23 0 -42.5 2t-30.5 4q2 21 5 40.5t5 38.5l23 -4q10 -2 20.5 -2.5t19.5 -0.5q58 0 78.5 34t20.5 103v375h80v-384zM168 571q0 19 13.5 32.5t32.5 13.5t32.5 -13.5t13.5 -32.5t-13.5 -32.5t-32.5 -13.5
t-32.5 13.5t-13.5 32.5z" />
    <glyph glyph-name="uni0633" unicode="&#x633;" horiz-adv-x="1198" arabic-form="isolated" 
d="M956 0q-42 0 -76.5 16t-46.5 62q-19 -47 -51 -62.5t-72 -15.5h-35q-15 0 -32.5 3t-33.5 10.5t-29 20t-20 32.5q-3 -64 -24.5 -117t-58 -91.5t-86.5 -59.5t-111 -21q-81 0 -135 23t-86 60t-45.5 82t-13.5 89q0 45 13 90.5t39 83.5q19 -11 34.5 -19t33.5 -19
q-19 -32 -28.5 -67t-9.5 -69q0 -26 9 -56t31.5 -56t62 -43.5t99.5 -17.5q39 0 75 11t63.5 34t44.5 59t17 86v233h79v-82q0 -24 5.5 -45.5t18.5 -37.5t35 -25.5t55 -9.5h26q38 0 49.5 22.5t11.5 53.5v166h80v-117q0 -26 4.5 -49t17 -40t34 -26.5t56.5 -9.5h83v299h79v-380
h-162z" />
    <glyph glyph-name="uni0634" unicode="&#x634;" horiz-adv-x="1198" arabic-form="isolated" 
d="M956 0q-42 0 -76.5 16t-46.5 62q-19 -47 -51 -62.5t-72 -15.5h-35q-15 0 -32.5 3t-33.5 10.5t-29 20t-20 32.5q-3 -64 -24.5 -117t-58 -91.5t-86.5 -59.5t-111 -21q-81 0 -135 23t-86 60t-45.5 82t-13.5 89q0 45 13 90.5t39 83.5q19 -11 34.5 -19t33.5 -19
q-19 -32 -28.5 -67t-9.5 -69q0 -26 9 -56t31.5 -56t62 -43.5t99.5 -17.5q39 0 75 11t63.5 34t44.5 59t17 86v233h79v-82q0 -24 5.5 -45.5t18.5 -37.5t35 -25.5t55 -9.5h26q38 0 49.5 22.5t11.5 53.5v166h80v-117q0 -26 4.5 -49t17 -40t34 -26.5t56.5 -9.5h83v299h79v-380
h-162zM691 571q0 19 13.5 32.5t32.5 13.5t32.5 -13.5t13.5 -32.5t-13.5 -32.5t-32.5 -13.5t-32.5 13.5t-13.5 32.5zM824 571q0 19 13.5 32.5t32.5 13.5t32.5 -13.5t13.5 -32.5t-13.5 -32.5t-32.5 -13.5t-32.5 13.5t-13.5 32.5zM758 676q0 19 13.5 32.5t32.5 13.5t32.5 -13.5
t13.5 -32.5t-13.5 -32.5t-32.5 -13.5t-32.5 13.5t-13.5 32.5z" />
    <glyph glyph-name="uni0635" unicode="&#x635;" horiz-adv-x="1124" arabic-form="isolated" 
d="M559 0q-9 -50 -32.5 -90.5t-59.5 -70t-83.5 -45.5t-103.5 -16q-81 0 -135 23t-86 60t-45.5 82t-13.5 89q0 45 13 90.5t39 83.5q19 -11 34.5 -19t33.5 -19q-19 -32 -28.5 -67t-9.5 -69q0 -26 9 -56t31.5 -56t62 -43.5t99.5 -17.5q39 0 75 11t63.5 34t44.5 59t17 86v332h79
v-144q28 55 59.5 92.5t65 59.5t68.5 31.5t70 9.5q56 0 98.5 -19.5t71.5 -53t43.5 -79.5t14.5 -99v-179h-495zM972 167q0 52 -12 87t-33 56t-50.5 30t-63.5 9q-41 0 -82.5 -19t-76.5 -54t-60 -84.5t-32 -110.5h410v86z" />
    <glyph glyph-name="uni0636" unicode="&#x636;" horiz-adv-x="1124" arabic-form="isolated" 
d="M559 0q-9 -50 -32.5 -90.5t-59.5 -70t-83.5 -45.5t-103.5 -16q-81 0 -135 23t-86 60t-45.5 82t-13.5 89q0 45 13 90.5t39 83.5q19 -11 34.5 -19t33.5 -19q-19 -32 -28.5 -67t-9.5 -69q0 -26 9 -56t31.5 -56t62 -43.5t99.5 -17.5q39 0 75 11t63.5 34t44.5 59t17 86v332h79
v-144q28 55 59.5 92.5t65 59.5t68.5 31.5t70 9.5q56 0 98.5 -19.5t71.5 -53t43.5 -79.5t14.5 -99v-179h-495zM972 167q0 52 -12 87t-33 56t-50.5 30t-63.5 9q-41 0 -82.5 -19t-76.5 -54t-60 -84.5t-32 -110.5h410v86zM760 571q0 19 13.5 32.5t32.5 13.5t32.5 -13.5
t13.5 -32.5t-13.5 -32.5t-32.5 -13.5t-32.5 13.5t-13.5 32.5z" />
    <glyph glyph-name="uni0637" unicode="&#x637;" horiz-adv-x="760" arabic-form="isolated" 
d="M0 81h119v636h80v-480q46 96 113.5 144.5t149.5 48.5q55 0 98 -19.5t71.5 -53t43.5 -79.5t15 -99v-179h-690v81zM608 167q0 98 -41.5 140t-117.5 42q-41 0 -82.5 -19.5t-77 -55t-60 -84.5t-30.5 -109h409v86z" />
    <glyph glyph-name="uni0638" unicode="&#x638;" horiz-adv-x="760" arabic-form="isolated" 
d="M0 81h119v636h80v-480q46 96 113.5 144.5t149.5 48.5q55 0 98 -19.5t71.5 -53t43.5 -79.5t15 -99v-179h-690v81zM608 167q0 98 -41.5 140t-117.5 42q-41 0 -82.5 -19.5t-77 -55t-60 -84.5t-30.5 -109h409v86zM421 571q0 19 13.5 32.5t32.5 13.5t32.5 -13.5t13.5 -32.5
t-13.5 -32.5t-32.5 -13.5t-32.5 13.5t-13.5 32.5z" />
    <glyph glyph-name="uni0639" unicode="&#x639;" horiz-adv-x="486" arabic-form="isolated" 
d="M176 79q-38 25 -61.5 71.5t-23.5 98.5q0 34 12 66.5t37.5 58t65 41t94.5 15.5q20 0 43.5 -2t50.5 -5q-3 -23 -5 -41t-4 -39q-20 3 -36.5 4.5t-35.5 1.5q-67 0 -103.5 -32t-36.5 -86q0 -36 16 -64t42 -46.5t60.5 -28.5t71.5 -10h73v-82h-195q-39 0 -68 -11.5t-48.5 -30
t-29 -43t-9.5 -51.5q0 -63 41 -101.5t126 -38.5q22 0 49.5 4t47.5 9q2 -20 5.5 -36t5.5 -33q-20 -8 -57 -14t-74 -6q-42 0 -83 12t-74 37.5t-53 65.5t-20 96q0 84 45.5 142.5t130.5 77.5z" />
    <glyph glyph-name="uni063A" unicode="&#x63a;" horiz-adv-x="486" arabic-form="isolated" 
d="M176 79q-38 25 -61.5 71.5t-23.5 98.5q0 34 12 66.5t37.5 58t65 41t94.5 15.5q20 0 43.5 -2t50.5 -5q-3 -23 -5 -41t-4 -39q-20 3 -36.5 4.5t-35.5 1.5q-67 0 -103.5 -32t-36.5 -86q0 -36 16 -64t42 -46.5t60.5 -28.5t71.5 -10h73v-82h-195q-39 0 -68 -11.5t-48.5 -30
t-29 -43t-9.5 -51.5q0 -63 41 -101.5t126 -38.5q22 0 49.5 4t47.5 9q2 -20 5.5 -36t5.5 -33q-20 -8 -57 -14t-74 -6q-42 0 -83 12t-74 37.5t-53 65.5t-20 96q0 84 45.5 142.5t130.5 77.5zM240 571q0 19 13.5 32.5t32.5 13.5t32.5 -13.5t13.5 -32.5t-13.5 -32.5t-32.5 -13.5
t-32.5 13.5t-13.5 32.5z" />
    <glyph glyph-name="uni0641" unicode="&#x641;" horiz-adv-x="940" arabic-form="isolated" 
d="M532 81q-16 19 -26 39q-10 18 -17.5 41t-7.5 49q0 39 15.5 77t43.5 67t68 47t88 18q40 0 72.5 -13.5t55 -38t34.5 -58.5t12 -76v-233h-738q-27 0 -51 8t-42 25t-28.5 43.5t-10.5 63.5v162h81v-141q0 -25 4.5 -40.5t12.5 -24.5t18.5 -12t22.5 -3h393zM790 81v157
q0 18 -6 36.5t-19 33.5t-33.5 24.5t-48.5 9.5q-24 0 -46.5 -9t-39.5 -26.5t-27 -41.5t-10 -54q0 -46 18 -72t40 -39q24 -14 59 -19h113zM631 571q0 19 13.5 32.5t32.5 13.5t32.5 -13.5t13.5 -32.5t-13.5 -32.5t-32.5 -13.5t-32.5 13.5t-13.5 32.5z" />
    <glyph glyph-name="uni0642" unicode="&#x642;" horiz-adv-x="711" arabic-form="isolated" 
d="M496 0q-69 0 -116 17.5t-76 47t-41.5 67t-12.5 78.5q0 43 16.5 81t46 66.5t68.5 45t84 16.5q41 0 74 -14t55.5 -38.5t34.5 -59t12 -74.5v-238q0 -57 -19 -111t-58.5 -96t-100.5 -67.5t-144 -25.5q-86 0 -146.5 22.5t-98.5 58t-55.5 79.5t-17.5 87q0 36 5.5 67.5t14 56.5
t17 43.5t14.5 27.5q17 -8 32.5 -16t30.5 -16q-11 -23 -18 -45q-7 -20 -12 -43t-5 -45q0 -41 14 -76.5t44 -61.5t76.5 -41.5t112.5 -15.5t110.5 19.5t72 51t40.5 71.5t15 81h-69zM561 81v157q0 43 -28.5 73.5t-79.5 30.5q-22 0 -44 -9t-40 -25.5t-29 -41t-11 -55.5
q0 -34 12.5 -58.5t34 -40.5t49.5 -23.5t60 -7.5h76zM342 571q0 19 13.5 32.5t32.5 13.5t32.5 -13.5t13.5 -32.5t-13.5 -32.5t-32.5 -13.5t-32.5 13.5t-13.5 32.5zM475 571q0 19 13.5 32.5t32.5 13.5t32.5 -13.5t13.5 -32.5t-13.5 -32.5t-32.5 -13.5t-32.5 13.5t-13.5 32.5z
" />
    <glyph glyph-name="uni0643" unicode="&#x643;" horiz-adv-x="824" arabic-form="isolated" 
d="M129 0q-36 0 -60.5 11t-39.5 29.5t-22 43t-7 51.5v158h79v-137q0 -26 6.5 -40.5t16.5 -22.5t22 -10t23 -2h519v636h79v-717h-616zM454 480q-5 2 -13.5 2.5t-15.5 0.5q-25 0 -41.5 -10t-16.5 -33t20 -42.5t62 -19.5h20v-40h-168v40h60q-19 17 -26 35.5t-7 32.5
q0 31 23.5 54t68.5 23q10 0 20 -0.5t19 -2.5z" />
    <glyph glyph-name="uni0644" unicode="&#x644;" horiz-adv-x="642" arabic-form="isolated" 
d="M278 -223q-81 0 -134.5 23t-85.5 60t-45 82t-13 89q0 45 12.5 90.5t38.5 83.5q18 -11 34.5 -19t33.5 -18q-20 -32 -28.5 -67.5t-8.5 -69.5q0 -26 9 -56t31.5 -56t61.5 -43.5t99 -17.5q39 0 75 11t64 34t45 59t17 86v669h78v-665q0 -62 -20.5 -112.5t-58 -86.5t-90 -56
t-115.5 -20z" />
    <glyph glyph-name="uni0645" unicode="&#x645;" horiz-adv-x="685" arabic-form="isolated" 
d="M422 430q47 0 84.5 -16t64 -44.5t40.5 -68t14 -85.5q0 -58 -16.5 -99t-46.5 -67t-71.5 -38t-90.5 -12h-232q-46 0 -67.5 -24.5t-21.5 -89.5v-240h-79v270q0 82 44.5 124.5t114.5 42.5h58v125q0 42 14 82t40 71t64.5 50t86.5 19zM425 352q-26 0 -49 -8t-40.5 -26.5
t-27.5 -48t-10 -72.5v-114h121q36 0 60.5 9t38.5 25.5t20 40.5t6 55q0 66 -31 102.5t-88 36.5z" />
    <glyph glyph-name="uni0646" unicode="&#x646;" horiz-adv-x="623" arabic-form="isolated" 
d="M504 279q12 -23 22.5 -51t18.5 -58.5t13 -60.5t5 -56q0 -56 -18 -106.5t-54 -88t-89.5 -59.5t-123.5 -22q-77 0 -130 21.5t-86 57t-47.5 81.5t-14.5 94q0 45 13 90.5t37 83.5q20 -11 35 -19t33 -19q-17 -32 -26.5 -66.5t-9.5 -69.5q0 -33 12 -64t36.5 -55t62.5 -39
t90 -15q48 0 85.5 14t63 39t39 58.5t13.5 72.5q0 48 -14.5 100t-39.5 94zM232 459q0 19 13.5 32.5t32.5 13.5t32.5 -13.5t13.5 -32.5t-13.5 -32.5t-32.5 -13.5t-32.5 13.5t-13.5 32.5z" />
    <glyph glyph-name="uni0648" unicode="&#x648;" horiz-adv-x="522" arabic-form="isolated" 
d="M282 0q-59 0 -100.5 17t-67 44t-37 61.5t-11.5 69.5q0 46 15 87.5t42 72.5t64 49t82 18q42 0 76 -14t58 -39t36.5 -60.5t12.5 -77.5v-233q0 -61 -18.5 -104t-52.5 -70t-80.5 -39.5t-101.5 -12.5q-20 0 -42 1t-47 5l8 76q23 -2 44.5 -3.5t41.5 -1.5q34 0 64.5 6t54 23
t37.5 47t15 78h-93zM374 81v115q0 69 -29.5 107.5t-81.5 38.5q-23 0 -44.5 -9t-38.5 -26.5t-27 -41.5t-10 -54q0 -35 11 -60t30 -40.5t43.5 -22.5t51.5 -7h95z" />
    <glyph glyph-name="uni0649" unicode="&#x649;" horiz-adv-x="746" arabic-form="isolated" 
d="M563 -9q0 28 -22 52.5t-48 47.5q-17 15 -34 31.5t-31 36t-23 41t-9 45.5q0 45 18 77t46 52.5t62 30.5t66 10q36 0 65.5 -7t42.5 -11q-5 -23 -10 -41t-10 -40l-26 9q-12 4 -29 7t-36 3q-46 0 -77 -19t-31 -62q0 -26 23.5 -52t52.5 -52q16 -15 33 -31.5t30 -34t21.5 -36.5
t8.5 -39q0 -38 -20 -79.5t-62 -76t-107 -57t-154 -22.5q-81 0 -138 23.5t-94 60.5t-54 83t-17 91q0 51 15.5 93.5t40.5 80.5l65 -39q-19 -32 -29 -65.5t-10 -62.5q0 -39 15 -72t44.5 -57t73 -37.5t100.5 -13.5q55 0 100.5 12t78.5 31.5t51 42.5t18 46z" />
    <glyph glyph-name="uni064A" unicode="&#x64a;" horiz-adv-x="746" arabic-form="isolated" 
d="M563 -9q0 28 -22 52.5t-48 47.5q-17 15 -34 31.5t-31 36t-23 41t-9 45.5q0 45 18 77t46 52.5t62 30.5t66 10q36 0 65.5 -7t42.5 -11q-5 -23 -10 -41t-10 -40l-26 9q-12 4 -29 7t-36 3q-46 0 -77 -19t-31 -62q0 -26 23.5 -52t52.5 -52q16 -15 33 -31.5t30 -34t21.5 -36.5
t8.5 -39q0 -38 -20 -79.5t-62 -76t-107 -57t-154 -22.5q-81 0 -138 23.5t-94 60.5t-54 83t-17 91q0 51 15.5 93.5t40.5 80.5l65 -39q-19 -32 -29 -65.5t-10 -62.5q0 -39 15 -72t44.5 -57t73 -37.5t100.5 -13.5q55 0 100.5 12t78.5 31.5t51 42.5t18 46zM211 -365
q0 19 13.5 32.5t32.5 13.5t32.5 -13.5t13.5 -32.5t-13.5 -32.5t-32.5 -13.5t-32.5 13.5t-13.5 32.5zM344 -365q0 19 13.5 32.5t32.5 13.5t32.5 -13.5t13.5 -32.5t-13.5 -32.5t-32.5 -13.5t-32.5 13.5t-13.5 32.5z" />
    <glyph glyph-name="uni0671" unicode="&#x671;" horiz-adv-x="237" arabic-form="isolated" 
d="M182 842q0 24 -10 33.5t-27 9.5q-9 0 -19.5 -3t-19.5 -9.5t-15 -16.5t-6 -24v-7h97v17zM11 791v34h40v82h33v-24q12 16 29.5 25t35.5 9q32 0 49 -20.5t17 -52.5v-53h-204zM80 717h77v-717h-77v717z" />
    <glyph glyph-name="uni0679" unicode="&#x679;" horiz-adv-x="823" arabic-form="isolated" 
d="M144 0q-42 0 -69.5 11t-44 29.5t-23.5 43t-7 51.5v158h79v-137q0 -46 17 -60.5t55 -14.5h513v299h80v-380h-600zM228 574h44v232h43v-155q16 22 39 34t46 12q45 0 66.5 -28t21.5 -70v-69h-260v44zM445 597q0 32 -13.5 44.5t-35.5 12.5q-26 0 -50.5 -21.5t-29.5 -58.5h129
v23z" />
    <glyph glyph-name="uni067E" unicode="&#x67e;" horiz-adv-x="823" arabic-form="isolated" 
d="M144 0q-42 0 -69.5 11t-44 29.5t-23.5 43t-7 51.5v158h79v-137q0 -46 17 -60.5t55 -14.5h513v299h80v-380h-600zM504 -161q0 -19 -13.5 -32.5t-32.5 -13.5t-32.5 13.5t-13.5 32.5t13.5 32.5t32.5 13.5t32.5 -13.5t13.5 -32.5zM371 -161q0 -19 -13.5 -32.5t-32.5 -13.5
t-32.5 13.5t-13.5 32.5t13.5 32.5t32.5 13.5t32.5 -13.5t13.5 -32.5zM437 -266q0 -19 -13.5 -32.5t-32.5 -13.5t-32.5 13.5t-13.5 32.5t13.5 32.5t32.5 13.5t32.5 -13.5t13.5 -32.5z" />
    <glyph glyph-name="uni0686" unicode="&#x686;" horiz-adv-x="545" arabic-form="isolated" 
d="M241 0q-39 0 -68 -11.5t-48.5 -30t-29 -43t-9.5 -51.5q0 -63 41 -101.5t126 -38.5q22 0 49.5 4t47.5 9q2 -20 5.5 -36t5.5 -33q-20 -8 -57 -14t-74 -6q-42 0 -83 12t-74 37.5t-53 65.5t-20 96q0 52 18 93.5t51.5 70t80.5 43.5t106 15h144q-23 29 -38 68t-19 74
q-8 63 -33.5 89.5t-76.5 26.5q-21 0 -48.5 -5.5t-55.5 -17.5l-21 76q13 4 31 9t37.5 9.5t40 7.5t39.5 3q39 0 68.5 -14t50 -38t32.5 -56.5t17 -69.5q3 -22 6.5 -43.5t11 -41.5t20 -38.5t33.5 -33.5v-86h-254zM375.091 -91.1221q0 -13.2314 -9.46094 -22.6338
q-9.46094 -9.40137 -22.7764 -9.40137q-13.3145 0 -22.7754 9.40137q-9.46094 9.40234 -9.46094 22.6338t9.46094 22.6328q9.46094 9.40234 22.7754 9.40234q13.3154 0 22.7764 -9.40234q9.46094 -9.40137 9.46094 -22.6328zM281.884 -91.1221q0 -13.2314 -9.46094 -22.6338
q-9.46094 -9.40137 -22.7764 -9.40137t-22.7764 9.40137q-9.45996 9.40234 -9.45996 22.6338t9.45996 22.6328q9.46094 9.40234 22.7764 9.40234t22.7764 -9.40234q9.46094 -9.40137 9.46094 -22.6328zM328.137 -164.245q0 -13.2324 -9.46094 -22.6338t-22.7754 -9.40137
q-13.3154 0 -22.7764 9.40137t-9.46094 22.6338q0 13.2314 9.46094 22.6328t22.7764 9.40137q13.3145 0 22.7754 -9.40137t9.46094 -22.6328z" />
    <glyph glyph-name="uni0688" unicode="&#x688;" horiz-adv-x="486" arabic-form="isolated" 
d="M46 0v81h290v128q0 42 -10 68.5t-29.5 41.5t-47 20t-62.5 5h-82v77h107q39 0 76 -8t65.5 -30.5t45.5 -61.5t17 -102v-219h-370zM65 574h44v232h43v-155q16 22 39 34t46 12q45 0 66.5 -28t21.5 -70v-69h-260v44zM282 597q0 32 -13.5 44.5t-35.5 12.5q-26 0 -50.5 -21.5
t-29.5 -58.5h129v23z" />
    <glyph glyph-name="uni0691" unicode="&#x691;" horiz-adv-x="331" arabic-form="isolated" 
d="M251 -4q0 -43 -11.5 -80.5t-34.5 -65.5t-56.5 -44t-76.5 -16q-23 0 -42.5 2t-30.5 4q2 21 5 40.5t5 38.5l23 -4q10 -2 20.5 -2.5t19.5 -0.5q58 0 78.5 34t20.5 103v375h80v-384zM45 574h44v232h43v-155q16 22 39 34t46 12q45 0 66.5 -28t21.5 -70v-69h-260v44zM262 597
q0 32 -13.5 44.5t-35.5 12.5q-26 0 -50.5 -21.5t-29.5 -58.5h129v23z" />
    <glyph glyph-name="uni0698" unicode="&#x698;" horiz-adv-x="331" arabic-form="isolated" 
d="M251 -4q0 -43 -11.5 -80.5t-34.5 -65.5t-56.5 -44t-76.5 -16q-23 0 -42.5 2t-30.5 4q2 21 5 40.5t5 38.5l23 -4q10 -2 20.5 -2.5t19.5 -0.5q58 0 78.5 34t20.5 103v375h80v-384zM96 571q0 19 13.5 32.5t32.5 13.5t32.5 -13.5t13.5 -32.5t-13.5 -32.5t-32.5 -13.5
t-32.5 13.5t-13.5 32.5zM229 571q0 19 13.5 32.5t32.5 13.5t32.5 -13.5t13.5 -32.5t-13.5 -32.5t-32.5 -13.5t-32.5 13.5t-13.5 32.5zM163 676q0 19 13.5 32.5t32.5 13.5t32.5 -13.5t13.5 -32.5t-13.5 -32.5t-32.5 -13.5t-32.5 13.5t-13.5 32.5z" />
    <glyph glyph-name="uni06A4" unicode="&#x6a4;" horiz-adv-x="940" arabic-form="isolated" 
d="M532 81q-16 19 -26 39q-10 18 -17.5 41t-7.5 49q0 39 15.5 77t43.5 67t68 47t88 18q40 0 72.5 -13.5t55 -38t34.5 -58.5t12 -76v-233h-738q-27 0 -51 8t-42 25t-28.5 43.5t-10.5 63.5v162h81v-141q0 -25 4.5 -40.5t12.5 -24.5t18.5 -12t22.5 -3h393zM790 81v157
q0 18 -6 36.5t-19 33.5t-33.5 24.5t-48.5 9.5q-24 0 -46.5 -9t-39.5 -26.5t-27 -41.5t-10 -54q0 -46 18 -72t40 -39q24 -14 59 -19h113zM567 571q0 19 13.5 32.5t32.5 13.5t32.5 -13.5t13.5 -32.5t-13.5 -32.5t-32.5 -13.5t-32.5 13.5t-13.5 32.5zM700 571q0 19 13.5 32.5
t32.5 13.5t32.5 -13.5t13.5 -32.5t-13.5 -32.5t-32.5 -13.5t-32.5 13.5t-13.5 32.5zM634 676q0 19 13.5 32.5t32.5 13.5t32.5 -13.5t13.5 -32.5t-13.5 -32.5t-32.5 -13.5t-32.5 13.5t-13.5 32.5z" />
    <glyph glyph-name="uni06A9" unicode="&#x6a9;" horiz-adv-x="815" arabic-form="isolated" 
d="M667 81v122q0 45 -11.5 71t-31.5 38.5t-46.5 16t-55.5 3.5h-109v80q49 78 94.5 152t96.5 152q20 -13 33 -22.5t31 -21.5l-170 -264h48q39 0 74.5 -8.5t63.5 -30t44.5 -59.5t16.5 -98v-212h-616q-36 0 -60.5 11t-39.5 29.5t-22 43t-7 51.5v158h79v-137q0 -26 4.5 -40.5
t12.5 -22.5t18.5 -10t21.5 -2h531z" />
    <glyph glyph-name="uni06AF" unicode="&#x6af;" horiz-adv-x="815" arabic-form="isolated" 
d="M667 81v122q0 45 -11.5 71t-31.5 38.5t-46.5 16t-55.5 3.5h-109v80q49 78 94.5 152t96.5 152q20 -13 33 -22.5t31 -21.5l-170 -264h48q39 0 74.5 -8.5t63.5 -30t44.5 -59.5t16.5 -98v-212h-616q-36 0 -60.5 11t-39.5 29.5t-22 43t-7 51.5v158h79v-137q0 -26 4.5 -40.5
t12.5 -22.5t18.5 -10t21.5 -2h531zM316 483l191 294l53 -37l-190 -293z" />
    <glyph glyph-name="uni06BA" unicode="&#x6ba;" horiz-adv-x="623" arabic-form="isolated" 
d="M504 279q12 -23 22.5 -51t18.5 -58.5t13 -60.5t5 -56q0 -56 -18 -106.5t-54 -88t-89.5 -59.5t-123.5 -22q-77 0 -130 21.5t-86 57t-47.5 81.5t-14.5 94q0 45 13 90.5t37 83.5q20 -11 35 -19t33 -19q-17 -32 -26.5 -66.5t-9.5 -69.5q0 -33 12 -64t36.5 -55t62.5 -39
t90 -15q48 0 85.5 14t63 39t39 58.5t13.5 72.5q0 48 -14.5 100t-39.5 94z" />
    <glyph glyph-name="uni06BE" unicode="&#x6be;" horiz-adv-x="751" arabic-form="isolated" 
d="M441 81h166v51q0 49 -12.5 85.5t-35 62t-52.5 41t-66 21.5v-261zM374 340q-86 -6 -127 -67.5t-41 -157.5v-34h168v259zM134 0q-45 0 -60 -23t-17 -61h-38q-8 14 -13.5 33t-5.5 36q0 29 9 47.5t23 29.5t32.5 15t37.5 4h31q0 141 59 225.5t182 107.5v61h67v-62
q63 -7 109.5 -31t76.5 -62t44.5 -88t14.5 -109v-123h-552z" />
    <glyph glyph-name="uni06C1" unicode="&#x6c1;" horiz-adv-x="457" arabic-form="isolated" 
d="M387 0h-171q-59 0 -100.5 17t-67 44t-37 61.5t-11.5 69.5q0 46 15 87.5t42 72.5t64.5 49t82.5 18q42 0 76 -14t57.5 -39t36.5 -60.5t13 -77.5v-228zM308 81v115q0 69 -29 107.5t-83 38.5q-22 0 -43 -9t-37.5 -26.5t-27 -41.5t-10.5 -54q0 -35 11 -60t30 -40.5t43 -22.5
t51 -7h95z" />
    <glyph glyph-name="uni06C2.fina" unicode="&#x6c2;" horiz-adv-x="309" 
d="M339 24q0 -24 -23 -24h-27q-34 0 -56.5 20.5t-40.5 44.5t-35.5 44.5t-39.5 20.5q-15 0 -25.5 -11t-16.5 -29.5t-9 -43t-3 -52.5v-19h-61q-2 8 -2 15.5v15.5q0 49 10 86.5t27 63t39 39t47 13.5q21 0 37 -9.5t29 -23.5t24.5 -30.5t24.5 -30.5t28.5 -23.5t36.5 -9.5h13
q23 0 23 -18v-39zM220 491q-6 1 -17 2t-19 1q-31 0 -51.5 -12.5t-20.5 -41.5q0 -14 6 -28t18.5 -25t32 -18t45.5 -7h25v-50h-209v50h74q-23 21 -32 44.5t-9 41.5q0 19 7.5 36.5t22 31t36 21.5t49.5 8q12 0 24.5 -1t23.5 -3z" />
    <glyph glyph-name="uni06C3.fina" unicode="&#x6c3;" horiz-adv-x="461" 
d="M308 81v115q0 69 -28.5 107.5t-82.5 38.5q-23 0 -44 -9t-38 -26.5t-27 -41.5t-10 -54q0 -35 11 -60t30 -40.5t43 -22.5t51 -7h95zM468 81q23 0 23 -18v-39q0 -24 -23 -24h-252q-59 0 -100.5 17t-67 44t-37 61.5t-11.5 69.5q0 46 15.5 87.5t42.5 72.5t64.5 49t81.5 18
q42 0 76 -14t57.5 -39t36.5 -60.5t13 -77.5v-147h81zM74 571q0 19 13.5 32.5t32.5 13.5t32.5 -13.5t13.5 -32.5t-13.5 -32.5t-32.5 -13.5t-32.5 13.5t-13.5 32.5zM207 571q0 19 13.5 32.5t32.5 13.5t32.5 -13.5t13.5 -32.5t-13.5 -32.5t-32.5 -13.5t-32.5 13.5t-13.5 32.5z
" />
    <glyph glyph-name="uni06CC" unicode="&#x6cc;" horiz-adv-x="746" arabic-form="isolated" 
d="M563 -9q0 28 -22 52.5t-48 47.5q-17 15 -34 31.5t-31 36t-23 41t-9 45.5q0 45 18 77t46 52.5t62 30.5t66 10q36 0 65.5 -7t42.5 -11q-5 -23 -10 -41t-10 -40l-26 9q-12 4 -29 7t-36 3q-46 0 -77 -19t-31 -62q0 -26 23.5 -52t52.5 -52q16 -15 33 -31.5t30 -34t21.5 -36.5
t8.5 -39q0 -38 -20 -79.5t-62 -76t-107 -57t-154 -22.5q-81 0 -138 23.5t-94 60.5t-54 83t-17 91q0 51 15.5 93.5t40.5 80.5l65 -39q-19 -32 -29 -65.5t-10 -62.5q0 -39 15 -72t44.5 -57t73 -37.5t100.5 -13.5q55 0 100.5 12t78.5 31.5t51 42.5t18 46z" />
    <glyph glyph-name="uni06D2" unicode="&#x6d2;" horiz-adv-x="890" arabic-form="isolated" 
d="M339 260q-42 -29 -82.5 -44t-74.5 -26q-23 -7 -42.5 -14t-34 -16.5t-22.5 -22t-8 -30.5q0 -22 22 -35t61.5 -20.5t94 -10t119.5 -2.5q57 0 122.5 3t128 8t117 12t90.5 15l-6 -72q-54 -11 -117.5 -18t-126.5 -11.5t-120 -6.5t-96 -2q-106 0 -176 8.5t-112 25t-59 40.5
t-17 54q0 37 15.5 63t40.5 44t57 31t65 25q39 14 76 28.5t66 37.5z" />
    <glyph glyph-name="uni06D3" unicode="&#x6d3;" horiz-adv-x="890" arabic-form="isolated" 
d="M339 260q-42 -29 -82.5 -44t-74.5 -26q-23 -7 -42.5 -14t-34 -16.5t-22.5 -22t-8 -30.5q0 -22 22 -35t61.5 -20.5t94 -10t119.5 -2.5q57 0 122.5 3t128 8t117 12t90.5 15l-6 -72q-54 -11 -117.5 -18t-126.5 -11.5t-120 -6.5t-96 -2q-106 0 -176 8.5t-112 25t-59 40.5
t-17 54q0 37 15.5 63t40.5 44t57 31t65 25q39 14 76 28.5t66 37.5zM234 549q-6 1 -17 2t-19 1q-31 0 -51.5 -12.5t-20.5 -41.5q0 -14 6 -28t18.5 -25t32 -18t45.5 -7h25v-50h-209v50h74q-23 21 -32 44.5t-9 41.5q0 19 7.5 36.5t22 31t36 21.5t49.5 8q12 0 24.5 -1t23.5 -3z
" />
    <glyph glyph-name="uni06D5.fina" unicode="&#x6d5;" horiz-adv-x="461" 
d="M308 81v115q0 69 -28.5 107.5t-82.5 38.5q-23 0 -44 -9t-38 -26.5t-27 -41.5t-10 -54q0 -35 11 -60t30 -40.5t43 -22.5t51 -7h95zM468 81q23 0 23 -18v-39q0 -24 -23 -24h-252q-59 0 -100.5 17t-67 44t-37 61.5t-11.5 69.5q0 46 15.5 87.5t42.5 72.5t64.5 49t81.5 18
q42 0 76 -14t57.5 -39t36.5 -60.5t13 -77.5v-147h81z" />
    <glyph glyph-name="uniFB51" unicode="&#x671;" horiz-adv-x="230" arabic-form="final" 
d="M181 842q0 24 -10 33.5t-27 9.5q-9 0 -19.5 -3t-19.5 -9.5t-15 -16.5t-6 -24v-7h97v17zM10 791v34h40v82h33v-24q12 16 29.5 25t35.5 9q32 0 49 -20.5t17 -52.5v-53h-204zM80 717h79v-636h78q23 0 23 -18v-39q0 -24 -23 -24h-157v717z" />
    <glyph glyph-name="uniFB57" unicode="&#x67e;" horiz-adv-x="881" arabic-form="final" 
d="M888 81q23 0 23 -18v-39q0 -24 -23 -24h-27q-43 0 -74.5 17.5t-45.5 60.5q-19 -48 -51 -63t-74 -15h-487q-36 0 -60.5 11t-40 29.5t-22 43t-6.5 51.5v158h79v-137q0 -40 14 -57.5t43 -17.5h476q37 0 48.5 20.5t11.5 55.5v223h79v-181q0 -25 5.5 -46.5t18.5 -37.5t35 -25
t54 -9h24zM492 -161q0 -19 -13.5 -32.5t-32.5 -13.5t-32.5 13.5t-13.5 32.5t13.5 32.5t32.5 13.5t32.5 -13.5t13.5 -32.5zM359 -161q0 -19 -13.5 -32.5t-32.5 -13.5t-32.5 13.5t-13.5 32.5t13.5 32.5t32.5 13.5t32.5 -13.5t13.5 -32.5zM425 -266q0 -19 -13.5 -32.5
t-32.5 -13.5t-32.5 13.5t-13.5 32.5t13.5 32.5t32.5 13.5t32.5 -13.5t13.5 -32.5z" />
    <glyph glyph-name="uniFB58" unicode="&#x67e;" horiz-adv-x="303" arabic-form="initial" 
d="M-7 0q-23 0 -23 18v39q0 24 23 24h150v299h80v-380h-230zM266 -161q0 -19 -13.5 -32.5t-32.5 -13.5t-32.5 13.5t-13.5 32.5t13.5 32.5t32.5 13.5t32.5 -13.5t13.5 -32.5zM133 -161q0 -19 -13.5 -32.5t-32.5 -13.5t-32.5 13.5t-13.5 32.5t13.5 32.5t32.5 13.5t32.5 -13.5
t13.5 -32.5zM199 -266q0 -19 -13.5 -32.5t-32.5 -13.5t-32.5 13.5t-13.5 32.5t13.5 32.5t32.5 13.5t32.5 -13.5t13.5 -32.5z" />
    <glyph glyph-name="uniFB59" unicode="&#x67e;" horiz-adv-x="348" arabic-form="medial" 
d="M-7 0q-23 0 -23 18v39q0 24 23 24h86q36 0 48.5 20.5t12.5 55.5v223h79v-181q0 -25 5.5 -46.5t19 -37.5t35.5 -25t54 -9h22q23 0 23 -18v-39q0 -24 -23 -24h-25q-45 0 -77 18t-44 60q-11 -25 -24 -40.5t-28.5 -23.5t-33.5 -11t-38 -3h-92zM289 -161q0 -19 -13.5 -32.5
t-32.5 -13.5t-32.5 13.5t-13.5 32.5t13.5 32.5t32.5 13.5t32.5 -13.5t13.5 -32.5zM156 -161q0 -19 -13.5 -32.5t-32.5 -13.5t-32.5 13.5t-13.5 32.5t13.5 32.5t32.5 13.5t32.5 -13.5t13.5 -32.5zM222 -266q0 -19 -13.5 -32.5t-32.5 -13.5t-32.5 13.5t-13.5 32.5t13.5 32.5
t32.5 13.5t32.5 -13.5t13.5 -32.5z" />
    <glyph glyph-name="uniFB67" unicode="&#x679;" horiz-adv-x="881" arabic-form="final" 
d="M888 81q23 0 23 -18v-39q0 -24 -23 -24h-27q-43 0 -74.5 17.5t-45.5 60.5q-19 -48 -51 -63t-74 -15h-487q-36 0 -60.5 11t-40 29.5t-22 43t-6.5 51.5v158h79v-137q0 -40 14 -57.5t43 -17.5h476q37 0 48.5 20.5t11.5 55.5v223h79v-181q0 -25 5.5 -46.5t18.5 -37.5t35 -25
t54 -9h24zM229 574h44v232h43v-155q16 22 39 34t46 12q45 0 66.5 -28t21.5 -70v-69h-260v44zM446 597q0 32 -13.5 44.5t-35.5 12.5q-26 0 -50.5 -21.5t-29.5 -58.5h129v23z" />
    <glyph glyph-name="uniFB68" unicode="&#x679;" horiz-adv-x="303" arabic-form="initial" 
d="M-7 0q-23 0 -23 18v39q0 24 23 24h150v299h80v-380h-230zM25 574h44v232h43v-155q16 22 39 34t46 12q45 0 66.5 -28t21.5 -70v-69h-260v44zM242 597q0 32 -13.5 44.5t-35.5 12.5q-26 0 -50.5 -21.5t-29.5 -58.5h129v23z" />
    <glyph glyph-name="uniFB69" unicode="&#x679;" horiz-adv-x="348" arabic-form="medial" 
d="M-7 0q-23 0 -23 18v39q0 24 23 24h86q36 0 48.5 20.5t12.5 55.5v223h79v-181q0 -25 5.5 -46.5t19 -37.5t35.5 -25t54 -9h22q23 0 23 -18v-39q0 -24 -23 -24h-25q-45 0 -77 18t-44 60q-11 -25 -24 -40.5t-28.5 -23.5t-33.5 -11t-38 -3h-92zM21 574h44v232h43v-155
q16 22 39 34t46 12q45 0 66.5 -28t21.5 -70v-69h-260v44zM238 597q0 32 -13.5 44.5t-35.5 12.5q-26 0 -50.5 -21.5t-29.5 -58.5h129v23z" />
    <glyph glyph-name="uniFB6B" unicode="&#x6a4;" horiz-adv-x="946" arabic-form="final" 
d="M959 81q23 0 23 -18v-39q0 -24 -23 -24h-826q-27 0 -51 8t-42.5 25t-29 43.5t-10.5 63.5v162h81v-141q0 -25 4.5 -40.5t12.5 -24.5t19 -12t24 -3h386q-22 22 -36.5 54.5t-14.5 74.5q0 39 15.5 77t43.5 67t67.5 47t87.5 18q41 0 73.5 -13.5t55.5 -38t35 -58.5t12 -76v-152
h93zM786 81v157q0 18 -6 36.5t-19 33.5t-33.5 24.5t-48.5 9.5q-25 0 -47.5 -9t-39.5 -26.5t-27 -41.5t-10 -54q0 -46 18 -72t40 -39q24 -14 59 -19h114zM569 571q0 19 13.5 32.5t32.5 13.5t32.5 -13.5t13.5 -32.5t-13.5 -32.5t-32.5 -13.5t-32.5 13.5t-13.5 32.5zM702 571
q0 19 13.5 32.5t32.5 13.5t32.5 -13.5t13.5 -32.5t-13.5 -32.5t-32.5 -13.5t-32.5 13.5t-13.5 32.5zM636 676q0 19 13.5 32.5t32.5 13.5t32.5 -13.5t13.5 -32.5t-13.5 -32.5t-32.5 -13.5t-32.5 13.5t-13.5 32.5z" />
    <glyph glyph-name="uniFB6C" unicode="&#x6a4;" horiz-adv-x="572" arabic-form="initial" 
d="M-7 0q-23 0 -23 18v39q0 24 23 24h167q-22 20 -36.5 53.5t-14.5 75.5q0 39 15.5 77t44 67t68 47t87.5 18q40 0 72.5 -13.5t55.5 -38t35 -58.5t12 -76v-233h-506zM419 81v157q0 18 -6 36.5t-19 33.5t-33.5 24.5t-48.5 9.5q-24 0 -46.5 -9t-39.5 -26.5t-27.5 -41.5
t-10.5 -54q0 -46 18 -72t41 -39q24 -14 59 -19h113zM205 571q0 19 13.5 32.5t32.5 13.5t32.5 -13.5t13.5 -32.5t-13.5 -32.5t-32.5 -13.5t-32.5 13.5t-13.5 32.5zM338 571q0 19 13.5 32.5t32.5 13.5t32.5 -13.5t13.5 -32.5t-13.5 -32.5t-32.5 -13.5t-32.5 13.5t-13.5 32.5z
M272 676q0 19 13.5 32.5t32.5 13.5t32.5 -13.5t13.5 -32.5t-13.5 -32.5t-32.5 -13.5t-32.5 13.5t-13.5 32.5z" />
    <glyph glyph-name="uniFB6D" unicode="&#x6a4;" horiz-adv-x="597" arabic-form="medial" 
d="M-7 0q-23 0 -23 18v39q0 24 23 24h164q-21 20 -36 53.5t-15 75.5q0 39 15.5 77t43.5 67t68 47t88 18q40 0 72.5 -13.5t55 -38t34.5 -58.5t12 -76v-152h89q23 0 23 -18v-39q0 -24 -23 -24h-591zM415 81v157q0 18 -6 36.5t-19 33.5t-33.5 24.5t-48.5 9.5q-24 0 -46 -9
t-39.5 -26.5t-27.5 -41.5t-10 -54q0 -46 18 -72t40 -39q24 -14 59 -19h113zM198 571q0 19 13.5 32.5t32.5 13.5t32.5 -13.5t13.5 -32.5t-13.5 -32.5t-32.5 -13.5t-32.5 13.5t-13.5 32.5zM331 571q0 19 13.5 32.5t32.5 13.5t32.5 -13.5t13.5 -32.5t-13.5 -32.5t-32.5 -13.5
t-32.5 13.5t-13.5 32.5zM265 676q0 19 13.5 32.5t32.5 13.5t32.5 -13.5t13.5 -32.5t-13.5 -32.5t-32.5 -13.5t-32.5 13.5t-13.5 32.5z" />
    <glyph glyph-name="uniFB7B" unicode="&#x686;" horiz-adv-x="534" arabic-form="final" 
d="M541 81q23 0 23 -18v-39q0 -24 -23 -24h-19q-42 0 -73.5 14t-55.5 46q-22 -38 -41.5 -49t-39.5 -11h-71q-39 0 -68 -11.5t-48.5 -30t-29 -43t-9.5 -51.5q0 -63 41 -101.5t126 -38.5q22 0 49.5 4t47.5 9q2 -20 5.5 -36t5.5 -33q-20 -8 -57 -14t-74 -6q-42 0 -83 12
t-74 37.5t-53 65.5t-20 96q0 52 18 93.5t51.5 70t80.5 43.5t106 15h125q-14 20 -24 51.5t-18 90.5q-8 64 -35.5 90t-73.5 26q-19 0 -48.5 -6.5t-55.5 -17.5l-20 78q12 4 29.5 9t37 9t40.5 7t40 3q46 0 77 -16.5t50.5 -42t28.5 -57t11 -61.5q3 -33 9.5 -63t18.5 -52t31.5 -35
t49.5 -13h12zM375.903 -91.2793q0 -13.25 -9.4502 -22.665t-22.751 -9.41504q-13.2998 0 -22.75 9.41504t-9.4502 22.665t9.4502 22.665t22.75 9.41504q13.3008 0 22.751 -9.41504t9.4502 -22.665zM282.801 -91.2793q0 -13.25 -9.44922 -22.665
q-9.4502 -9.41504 -22.751 -9.41504q-13.2998 0 -22.75 9.41504t-9.4502 22.665t9.4502 22.665t22.75 9.41504q13.3008 0 22.751 -9.41504q9.44922 -9.41504 9.44922 -22.665zM329.002 -164.505q0 -13.251 -9.4502 -22.665q-9.4502 -9.41504 -22.75 -9.41504
q-13.3008 0 -22.751 9.41504q-9.4502 9.41406 -9.4502 22.665q0 13.25 9.4502 22.665q9.4502 9.41406 22.751 9.41406q13.2998 0 22.75 -9.41406q9.4502 -9.41504 9.4502 -22.665z" />
    <glyph glyph-name="uniFB7C" unicode="&#x686;" horiz-adv-x="486" arabic-form="initial" 
d="M346 81q-29 32 -44 70t-20 72q-15 116 -109 116q-20 0 -48 -5.5t-56 -17.5q-5 22 -10.5 39t-10.5 37q27 8 67.5 18.5t80.5 10.5t70 -13t50 -36.5t31.5 -56t15.5 -71.5q3 -22 6.5 -44t11 -43t20.5 -39.5t35 -32.5v-85h-443q-23 0 -23 18v39q0 24 23 24h353zM345 -161
q0 -19 -13.5 -32.5t-32.5 -13.5t-32.5 13.5t-13.5 32.5t13.5 32.5t32.5 13.5t32.5 -13.5t13.5 -32.5zM212 -161q0 -19 -13.5 -32.5t-32.5 -13.5t-32.5 13.5t-13.5 32.5t13.5 32.5t32.5 13.5t32.5 -13.5t13.5 -32.5zM278 -266q0 -19 -13.5 -32.5t-32.5 -13.5t-32.5 13.5
t-13.5 32.5t13.5 32.5t32.5 13.5t32.5 -13.5t13.5 -32.5z" />
    <glyph glyph-name="uniFB7D" unicode="&#x686;" horiz-adv-x="477" arabic-form="medial" 
d="M-7 0q-23 0 -23 18v39q0 24 23 24h331q-14 20 -24 51.5t-18 90.5q-8 64 -35.5 90t-73.5 26q-19 0 -48.5 -6.5t-55.5 -17.5l-20 78q12 4 29.5 9t37 9t40.5 7t40 3q46 0 77 -16.5t50.5 -42t28.5 -57t11 -61.5q3 -33 9.5 -63t18.5 -52t31.5 -35t49.5 -13h12q23 0 23 -18v-39
q0 -24 -23 -24h-19q-42 0 -73.5 14t-55.5 46q-22 -38 -41.5 -49t-39.5 -11h-262zM346 -161q0 -19 -13.5 -32.5t-32.5 -13.5t-32.5 13.5t-13.5 32.5t13.5 32.5t32.5 13.5t32.5 -13.5t13.5 -32.5zM213 -161q0 -19 -13.5 -32.5t-32.5 -13.5t-32.5 13.5t-13.5 32.5t13.5 32.5
t32.5 13.5t32.5 -13.5t13.5 -32.5zM279 -266q0 -19 -13.5 -32.5t-32.5 -13.5t-32.5 13.5t-13.5 32.5t13.5 32.5t32.5 13.5t32.5 -13.5t13.5 -32.5z" />
    <glyph glyph-name="uniFB89" unicode="&#x688;" horiz-adv-x="535" arabic-form="final" 
d="M542 81q23 0 23 -18v-39q0 -24 -23 -24h-25q-20 0 -39 3.5t-35 12.5t-28 25.5t-18 42.5q-6 -22 -19 -38t-30 -26t-37 -15t-39 -5h-229v81h220q36 0 49.5 18t13.5 56q0 48 -3.5 84t-18.5 59t-44 34.5t-80 11.5h-80v77h104q57 0 95 -16t61 -44t33 -66t10 -83
q0 -66 27.5 -98.5t88.5 -32.5h23zM51 574h44v232h43v-155q16 22 39 34t46 12q45 0 66.5 -28t21.5 -70v-69h-260v44zM268 597q0 32 -13.5 44.5t-35.5 12.5q-26 0 -50.5 -21.5t-29.5 -58.5h129v23z" />
    <glyph glyph-name="uniFB8B" unicode="&#x698;" horiz-adv-x="377" arabic-form="final" 
d="M384 81q23 0 23 -18v-39q0 -24 -23 -24h-19q-17 0 -34 2t-33 9.5t-29.5 22t-21.5 38.5v-76q0 -43 -11.5 -80.5t-34 -65.5t-56 -44t-76.5 -16q-23 0 -42.5 2t-30.5 4l9 79l23 -4q10 -2 21 -2.5t20 -0.5q58 0 78.5 34t20.5 103v375h79v-181q0 -25 5.5 -46.5t19 -37.5
t35.5 -25t55 -9h22zM90 571q0 19 13.5 32.5t32.5 13.5t32.5 -13.5t13.5 -32.5t-13.5 -32.5t-32.5 -13.5t-32.5 13.5t-13.5 32.5zM223 571q0 19 13.5 32.5t32.5 13.5t32.5 -13.5t13.5 -32.5t-13.5 -32.5t-32.5 -13.5t-32.5 13.5t-13.5 32.5zM157 676q0 19 13.5 32.5
t32.5 13.5t32.5 -13.5t13.5 -32.5t-13.5 -32.5t-32.5 -13.5t-32.5 13.5t-13.5 32.5z" />
    <glyph glyph-name="uniFB8D" unicode="&#x691;" horiz-adv-x="377" arabic-form="final" 
d="M384 81q23 0 23 -18v-39q0 -24 -23 -24h-19q-17 0 -34 2t-33 9.5t-29.5 22t-21.5 38.5v-76q0 -43 -11.5 -80.5t-34 -65.5t-56 -44t-76.5 -16q-23 0 -42.5 2t-30.5 4l9 79l23 -4q10 -2 21 -2.5t20 -0.5q58 0 78.5 34t20.5 103v375h79v-181q0 -25 5.5 -46.5t19 -37.5
t35.5 -25t55 -9h22zM41 574h44v232h43v-155q16 22 39 34t46 12q45 0 66.5 -28t21.5 -70v-69h-260v44zM258 597q0 32 -13.5 44.5t-35.5 12.5q-26 0 -50.5 -21.5t-29.5 -58.5h129v23z" />
    <glyph glyph-name="uniFB8F" unicode="&#x6a9;" horiz-adv-x="880" arabic-form="final" 
d="M887 81q23 0 23 -18v-39q0 -24 -23 -24h-26q-45 0 -77 16.5t-46 61.5q-10 -25 -23 -40.5t-28 -23.5t-33 -11t-38 -3h-488q-35 0 -59.5 11t-39.5 29.5t-22 43t-7 51.5v158h79v-137q0 -26 4.5 -40.5t12.5 -22.5t18.5 -10t21.5 -2h476q20 0 31.5 5t17.5 14.5t7.5 23.5
t1.5 31q0 51 -4.5 85.5t-19.5 55t-43.5 29t-76.5 8.5h-114v79l192 303q17 -14 29.5 -22t29.5 -21l-172 -264h59q43 0 79.5 -10t62.5 -33t41 -60.5t15 -92.5q1 -75 30 -103t86 -28h23z" />
    <glyph glyph-name="uniFB90" unicode="&#x6a9;" horiz-adv-x="473" arabic-form="initial" 
d="M-7 0q-23 0 -23 18v39q0 24 23 24h331v122q0 45 -11.5 71t-31.5 38.5t-46 16t-56 3.5h-108v80q49 78 94.5 152t96.5 152q20 -13 33 -22.5t31 -21.5l-171 -264h49q38 0 74 -8.5t63.5 -30t44.5 -59.5t17 -98v-212h-410z" />
    <glyph glyph-name="uniFB91" unicode="&#x6a9;" horiz-adv-x="533" arabic-form="medial" 
d="M-7 0q-23 0 -23 18v39q0 24 23 24h268q39 0 50.5 19.5t11.5 54.5q0 51 -4 85.5t-19 54.5t-43.5 28.5t-77.5 8.5h-112v80q49 78 94.5 152t96.5 152q20 -13 33 -22.5t31 -21.5l-171 -264h52q43 0 79.5 -10t62.5 -33t41 -60.5t15 -92.5q1 -75 30 -103t86 -28h23q23 0 23 -18
v-39q0 -24 -23 -24h-26q-45 0 -77 16.5t-46 61.5q-10 -25 -23 -40.5t-28 -23.5t-33 -11t-38 -3h-276z" />
    <glyph glyph-name="uniFB93" unicode="&#x6af;" horiz-adv-x="880" arabic-form="final" 
d="M887 81q23 0 23 -18v-39q0 -24 -23 -24h-26q-45 0 -77 16.5t-46 61.5q-10 -25 -23 -40.5t-28 -23.5t-33 -11t-38 -3h-488q-35 0 -59.5 11t-39.5 29.5t-22 43t-7 51.5v158h79v-137q0 -26 4.5 -40.5t12.5 -22.5t18.5 -10t21.5 -2h476q20 0 31.5 5t17.5 14.5t7.5 23.5
t1.5 31q0 51 -4.5 85.5t-19.5 55t-43.5 29t-76.5 8.5h-114v79l192 303l59 -43l-172 -264h59q43 0 79.5 -10t62.5 -33t41 -60.5t15 -92.5q1 -75 30 -103t86 -28h23zM316 483l191 294l53 -37l-190 -293z" />
    <glyph glyph-name="uniFB94" unicode="&#x6af;" horiz-adv-x="522" arabic-form="initial" 
d="M-21 0q-7 0 -7 7v63q0 4 1.5 7.5t5.5 3.5h390v122q0 45 -11.5 71t-31.5 38.5t-46.5 16t-55.5 3.5h-109v80l192 304l64 -44l-171 -264h48q39 0 75 -8.5t63.5 -30t44.5 -59.5t17 -98v-212h-469zM27 483l191 294l53 -37l-190 -293z" />
    <glyph glyph-name="uniFB95" unicode="&#x6af;" horiz-adv-x="585" arabic-form="medial" 
d="M-28 0q-8 0 -8 7v63q0 4 2 7.5t6 3.5h335q39 0 50.5 19.5t11.5 54.5q0 51 -4 85.5t-19 55t-43.5 29t-77.5 8.5h-112v79l191 303l58 -43l-171 -264h58q43 0 79.5 -10t62.5 -33t41 -60.5t15 -92.5q1 -70 30 -100.5t86 -30.5h39q7 0 7 -7v-65q0 -2 -1.5 -5.5t-5.5 -3.5h-42
q-22 0 -40.5 9.5t-33.5 24t-25.5 32.5t-17.5 36q-17 -49 -51.5 -75.5t-76.5 -26.5h-343zM27 483l191 294l53 -37l-190 -293z" />
    <glyph glyph-name="uniFB9F" unicode="&#x6ba;" horiz-adv-x="679" arabic-form="final" 
d="M686 81q23 0 23 -18v-39q0 -24 -23 -24h-25q-29 0 -55.5 8t-41.5 34q-7 -73 -34 -123.5t-67 -82t-88 -45.5t-97 -14q-81 0 -134.5 23t-85.5 60t-45 82t-13 89q0 45 14 91t39 83l66 -38q-19 -32 -28 -67.5t-9 -68.5q0 -29 9.5 -59.5t33 -56t62 -41.5t96.5 -16q50 0 88 15
t63 40.5t37.5 59t12.5 69.5q0 45 -14.5 96.5t-40.5 96.5q22 12 38.5 22t36.5 21q16 -34 27 -65t18 -57q6 -23 14 -37.5t20.5 -22.5t31 -11.5t46.5 -3.5h25z" />
    <glyph glyph-name="uniFBA7" unicode="&#x6c1;" horiz-adv-x="309" arabic-form="final" 
d="M339 24q0 -24 -23 -24h-27q-34 0 -56.5 20.5t-40.5 44.5t-35.5 44.5t-39.5 20.5q-15 0 -25.5 -11t-16.5 -29.5t-9 -43t-3 -52.5v-19h-61q-2 8 -2 15.5v15.5q0 49 10 86.5t27 63t39 39t47 13.5q21 0 37 -9.5t29 -23.5t24.5 -30.5t24.5 -30.5t28.5 -23.5t36.5 -9.5h13
q23 0 23 -18v-39z" />
    <glyph glyph-name="uniFBA8" unicode="&#x6c1;" horiz-adv-x="311" arabic-form="initial" 
d="M-7 0q-23 0 -23 18v39q0 24 23 24h150v299h80v-380h-35q-51 -66 -51 -116q0 -20 11.5 -35.5t36.5 -15.5h11q-8 -21 -23.5 -34.5t-38.5 -13.5q-26 0 -43 19.5t-17 48.5q0 23 10 61t45 86h-136z" />
    <glyph glyph-name="uniFBA9" unicode="&#x6c1;" horiz-adv-x="475" arabic-form="medial" 
d="M-7 0q-23 0 -23 18v39q0 24 23 24h203q-11 -45 -17.5 -88t-6.5 -67q0 -45 19.5 -77.5t54.5 -46.5q2 51 16 101t39.5 89.5t63 64t85.5 24.5h32q23 0 23 -18v-39q0 -24 -23 -24h-40q-38 0 -67 -28t-49 -71.5t-31.5 -96.5t-13.5 -103q-88 28 -128.5 81t-40.5 119
q0 20 3.5 45t9.5 54h-132z" />
    <glyph glyph-name="uniFBAB" unicode="&#x6be;" horiz-adv-x="624" arabic-form="final" 
d="M250 81h116q18 0 35 12t30 33t21 48.5t8 58.5q0 51 -26.5 81t-69.5 30q-17 0 -37 -8t-37 -29.5t-28.5 -60.5t-11.5 -101v-64zM382 -266q22 0 41 8t32 22t20.5 32.5t7.5 38.5q0 18 -8 40.5t-22.5 45t-33 43.5t-39.5 36h-126v-109q0 -44 12 -74t30.5 -48.5t41.5 -26.5
t44 -8zM631 81q23 0 23 -18v-39q0 -24 -23 -24h-153q40 -42 56.5 -83t16.5 -73q0 -39 -12 -72.5t-34.5 -58t-54 -38.5t-70.5 -14q-53 0 -90 19t-60 49.5t-34 70t-11 81.5v119h-51q-45 0 -60 -23t-17 -61h-37q-8 15 -14 33.5t-6 35.5q0 29 9 47.5t23 29.5t32.5 15t37.5 4h80
v80q0 63 15.5 111t42 81t61.5 50t74 17q70 0 112.5 -44.5t42.5 -125.5q0 -24 -5.5 -48t-15 -46.5t-21 -41.5t-23.5 -33h166z" />
    <glyph glyph-name="uniFBAC" unicode="&#x6be;" horiz-adv-x="739" arabic-form="initial" 
d="M357 341q-76 -10 -122 -70.5t-46 -166.5v-23h168v260zM424 81h166v51q0 49 -12.5 85.5t-35 62t-52.5 41t-66 21.5v-261zM-7 0q-23 0 -23 18v39q0 24 23 24h123q0 69 17.5 127t49 101t76 70t98.5 34v62h67v-62q63 -7 109.5 -31t76.5 -62t44.5 -88t14.5 -109v-123h-676z
" />
    <glyph glyph-name="uniFBAD" unicode="&#x6be;" horiz-adv-x="547" arabic-form="medial" 
d="M173 81h116q18 0 35 12t30 33t21 48.5t8 58.5q0 51 -26.5 81t-69.5 30q-17 0 -37 -8t-37 -29.5t-28.5 -60.5t-11.5 -101v-64zM305 -266q22 0 41 8t32 22t20.5 32.5t7.5 38.5q0 18 -8 40.5t-22.5 45t-33 43.5t-39.5 36h-126v-109q0 -44 12 -74t30.5 -48.5t41.5 -26.5
t44 -8zM-7 0q-23 0 -23 18v39q0 24 23 24h112v80q0 63 15.5 111t42 81t61.5 50t74 17q70 0 112.5 -44.5t42.5 -125.5q0 -24 -5.5 -48t-15 -46.5t-21 -41.5t-23.5 -33h166q23 0 23 -18v-39q0 -24 -23 -24h-153q40 -42 56.5 -83t16.5 -73q0 -39 -12 -72.5t-34.5 -58t-54 -38.5
t-70.5 -14q-53 0 -90 19t-60 49.5t-34 70t-11 81.5v119h-115z" />
    <glyph glyph-name="uniFBAF" unicode="&#x6d2;" horiz-adv-x="449" arabic-form="final" 
d="M457 81q23 0 23 -18v-39q0 -24 -23 -24h-184q-64 0 -103.5 -8t-62 -20t-30.5 -25.5t-8 -24.5q0 -19 12.5 -34t44 -25.5t85.5 -16.5t137 -6q65 0 123 1.5t113.5 5t110 9t111.5 13.5l-7 -68q-88 -15 -206.5 -25.5t-262.5 -10.5q-92 0 -155 12t-102 32.5t-56 47.5t-17 57
q0 46 28 77.5t74 51.5t105 29t122 9h128z" />
    <glyph glyph-name="uniFBB1" unicode="&#x6d3;" horiz-adv-x="470" arabic-form="final" 
d="M457 81q23 0 23 -18v-39q0 -24 -23 -24h-184q-64 0 -103.5 -8t-62 -20t-30.5 -25.5t-8 -24.5q0 -19 12.5 -34t44 -25.5t85.5 -16.5t137 -6q65 0 123 1.5t113.5 5t110 9t111.5 13.5l-7 -68q-88 -15 -206.5 -25.5t-262.5 -10.5q-92 0 -155 12t-102 32.5t-56 47.5t-17 57
q0 46 28 77.5t74 51.5t105 29t122 9h128zM224 374q-6 1 -17 2t-19 1q-31 0 -51.5 -12.5t-20.5 -41.5q0 -14 6 -28t18.5 -25t32 -18t45.5 -7h25v-50h-209v50h74q-23 21 -32 44.5t-9 41.5q0 19 7.5 36.5t22 31t36 21.5t49.5 8q12 0 24.5 -1t23.5 -3z" />
    <glyph glyph-name="uniFBE8" unicode="&#x649;" horiz-adv-x="303" arabic-form="initial" 
d="M-7 0q-23 0 -23 18v39q0 24 23 24h150v299h80v-380h-230z" />
    <glyph glyph-name="uniFBE9" unicode="&#x649;" horiz-adv-x="348" arabic-form="medial" 
d="M-7 0q-23 0 -23 18v39q0 24 23 24h86q36 0 48.5 20.5t12.5 55.5v223h79v-181q0 -25 5.5 -46.5t19 -37.5t35.5 -25t54 -9h22q23 0 23 -18v-39q0 -24 -23 -24h-25q-45 0 -77 18t-44 60q-11 -25 -24 -40.5t-28.5 -23.5t-33.5 -11t-38 -3h-92z" />
    <glyph glyph-name="uniFBFD" unicode="&#x6cc;" horiz-adv-x="957" arabic-form="final" 
d="M964 81q23 0 23 -18v-39q0 -24 -23 -24h-152v172q0 42 -10 68t-28.5 40t-45.5 18.5t-61 4.5h-21v-245q0 -59 -20 -110.5t-62 -90t-107 -61t-154 -22.5q-81 0 -138 23.5t-94 60.5t-54 83t-17 91q0 51 15.5 93.5t40.5 80.5l64 -39q-19 -32 -28.5 -65.5t-9.5 -62.5
q0 -39 15 -72t44.5 -57t73 -37.5t99.5 -13.5q55 0 101.5 11.5t80.5 33.5t52.5 55t18.5 75v346h126q103 0 150.5 -48.5t47.5 -147.5v-103h73z" />
    <glyph glyph-name="uniFBFE" unicode="&#x6cc;" horiz-adv-x="303" arabic-form="initial" 
d="M-7 0q-23 0 -23 18v39q0 24 23 24h150v299h80v-380h-230zM24 -161q0 19 13.5 32.5t32.5 13.5t32.5 -13.5t13.5 -32.5t-13.5 -32.5t-32.5 -13.5t-32.5 13.5t-13.5 32.5zM157 -161q0 19 13.5 32.5t32.5 13.5t32.5 -13.5t13.5 -32.5t-13.5 -32.5t-32.5 -13.5t-32.5 13.5
t-13.5 32.5z" />
    <glyph glyph-name="uniFBFF" unicode="&#x6cc;" horiz-adv-x="348" arabic-form="medial" 
d="M-7 0q-23 0 -23 18v39q0 24 23 24h86q36 0 48.5 20.5t12.5 55.5v223h79v-181q0 -25 5.5 -46.5t19 -37.5t35.5 -25t54 -9h22q23 0 23 -18v-39q0 -24 -23 -24h-25q-45 0 -77 18t-44 60q-11 -25 -24 -40.5t-28.5 -23.5t-33.5 -11t-38 -3h-92zM70 -161q0 19 13.5 32.5
t32.5 13.5t32.5 -13.5t13.5 -32.5t-13.5 -32.5t-32.5 -13.5t-32.5 13.5t-13.5 32.5zM203 -161q0 19 13.5 32.5t32.5 13.5t32.5 -13.5t13.5 -32.5t-13.5 -32.5t-32.5 -13.5t-32.5 13.5t-13.5 32.5z" />
    <glyph glyph-name="uni064C0651" unicode="&#xfc5e;" horiz-adv-x="0" arabic-form="isolated" 
d="M1 832q-11 -14 -27 -23.5t-35 -9.5q-37 0 -59.5 23.5t-22.5 61.5v78h40v-80q0 -22 12.5 -32.5t30.5 -10.5q17 0 29 12.5t12 30.5v67h39v-67q0 -18 12 -30.5t29 -12.5q18 0 30.5 10.5t12.5 32.5v80h40v-78q0 -38 -23.5 -61.5t-58.5 -23.5q-19 0 -35 9.5t-26 23.5zM1 1079
q20 0 37 7q-18 14 -27.5 32t-9.5 35q0 30 20 49.5t47 19.5q26 0 43.5 -16t17.5 -50q0 -27 -13.5 -47.5t-33 -34.5t-42 -21.5t-40.5 -7.5q-23 0 -47 10.5t-44 40.5l-42 -40l-21 22l63 64q19 -26 41.5 -44.5t50.5 -18.5zM34 1154q0 -11 6 -25t25 -28q14 10 23.5 23t9.5 30
t-9.5 26t-20.5 9q-15 0 -24.5 -9.5t-9.5 -25.5z" />
    <glyph glyph-name="uni064D0651" unicode="&#xfc5f;" horiz-adv-x="0" arabic-form="isolated" 
d="M1 1133q-11 -14 -27 -23.5t-35 -9.5q-37 0 -59.5 23.5t-22.5 61.5v78h40v-80q0 -22 12.5 -32.5t30.5 -10.5q17 0 29 12.5t12 30.5v67h39v-67q0 -18 12 -30.5t29 -12.5q18 0 30.5 10.5t12.5 32.5v80h40v-78q0 -38 -23.5 -61.5t-58.5 -23.5q-19 0 -35 9.5t-26 23.5z
M-102 828q55 20 106 38t105 37v-46q-55 -20 -106 -38t-105 -37v46zM-102 948q55 20 106 38t105 37v-46q-55 -20 -106 -38t-105 -36v45z" />
    <glyph glyph-name="uni064E0651" unicode="&#xfc60;" horiz-adv-x="0" arabic-form="isolated" 
d="M2 832q-11 -14 -27 -23.5t-35 -9.5q-37 0 -59.5 23.5t-22.5 61.5v78h40v-80q0 -22 12.5 -32.5t30.5 -10.5q17 0 29 12.5t12 30.5v67h39v-67q0 -18 12 -30.5t29 -12.5q18 0 30.5 10.5t12.5 32.5v80h40v-78q0 -38 -23.5 -61.5t-58.5 -23.5q-19 0 -35 9.5t-26 23.5z
M-112 1088q55 20 106 38t105 37v-46q-55 -20 -106 -38t-105 -37v46z" />
    <glyph glyph-name="uni064F0651" unicode="&#xfc61;" horiz-adv-x="0" arabic-form="isolated" 
d="M1 832q-11 -14 -27 -23.5t-35 -9.5q-37 0 -59.5 23.5t-22.5 61.5v78h40v-80q0 -22 12.5 -32.5t30.5 -10.5q17 0 29 12.5t12 30.5v67h39v-67q0 -18 12 -30.5t29 -12.5q18 0 30.5 10.5t12.5 32.5v80h40v-78q0 -38 -23.5 -61.5t-58.5 -23.5q-19 0 -35 9.5t-26 23.5z
M-20 1066q17 0 41 8q-18 14 -28 33t-10 36q0 30 20.5 50t47.5 20q28 0 46 -16t18 -51q0 -27 -13.5 -48.5t-34 -36.5t-44.5 -22.5t-45 -7.5q-28 0 -53.5 4.5t-48.5 11.5l9 34q22 -7 44 -11t51 -4zM16 1144q0 -14 6.5 -27.5t25.5 -28.5q15 10 25 24t10 32q0 17 -9.5 26
t-22.5 9q-14 0 -24.5 -9.5t-10.5 -25.5z" />
    <glyph glyph-name="uni06500651" unicode="&#xfc62;" horiz-adv-x="0" arabic-form="isolated" 
d="M-102 828q55 20 106 38t105 37v-46q-55 -20 -106 -38t-105 -37v46zM1 999q-11 -14 -27 -23.5t-35 -9.5q-37 0 -59.5 23.5t-22.5 61.5v78h40v-80q0 -22 12.5 -32.5t30.5 -10.5q17 0 29 12.5t12 30.5v67h39v-67q0 -18 12 -30.5t29 -12.5q18 0 30.5 10.5t12.5 32.5v80h40
v-78q0 -38 -23.5 -61.5t-58.5 -23.5q-19 0 -35 9.5t-26 23.5z" />
    <glyph glyph-name="uni06510670" unicode="&#xfc63;" horiz-adv-x="0" arabic-form="isolated" 
d="M1 832q-11 -14 -27 -23.5t-35 -9.5q-37 0 -59.5 23.5t-22.5 61.5v78h40v-80q0 -22 12.5 -32.5t30.5 -10.5q17 0 29 12.5t12 30.5v67h39v-67q0 -18 12 -30.5t29 -12.5q18 0 30.5 10.5t12.5 32.5v80h40v-78q0 -38 -23.5 -61.5t-58.5 -23.5q-19 0 -35 9.5t-26 23.5z
M-14 1197h35v-173h-35v173z" />
    <glyph glyph-name="uniFDF2" unicode="&#xfdf2;" horiz-adv-x="1296" arabic-form="isolated" 
d="M789 0q-45 0 -77 18t-44 60q-11 -25 -24 -40.5t-28.5 -23.5t-33.5 -11t-38 -3h-330q-59 0 -100.5 17t-67 44t-37 61.5t-11.5 69.5q0 46 15.5 87.5t42.5 72.5t64.5 49t81.5 18q42 0 76 -14t57.5 -39t36.5 -60.5t13 -77.5v-147h153q36 0 48.5 20.5t12.5 55.5v560h79v-518
q0 -25 5.5 -46.5t19 -37.5t35.5 -25t54 -9h122v636h79v-717h-204zM306 81v115q0 69 -28.5 107.5t-82.5 38.5q-23 0 -44 -9t-38 -26.5t-27 -41.5t-10 -54q0 -35 11 -60t30 -40.5t43 -22.5t51 -7h95zM1139 717h77v-717h-77v717z" />
    <glyph glyph-name="uniFDFA" unicode="&#xfdfa;" horiz-adv-x="1057" arabic-form="isolated" 
d="M1017 437q0 -14 -16 -39q-15 -24 -31 -31q-47 -21 -116 -21q-11 0 -23 0.5t-25 1.5q-24 -47 -38 -47q-4 0 -4 6q0 16 22 47q-43 16 -48 26q-41 -26 -50 -26q4 -71 10.5 -115t14.5 -61q19 -36 84 -40l2 2q-21 16 -21 43q0 32 32 76q24 32 61 32q27 0 53 -17q24 -17 24 -31
q-26 9 -52 9q-34 0 -65 -14q-26 -14 -26 -27q0 -14 25 -39q23 -24 44 -29q18 1 68 18q25 8 42 14t25 11l-17 -37q-101 -53 -191 -53q-97 0 -119 73q-30 -65 -57 -65q-26 0 -67 44q-65 -56 -197 -56q-20 0 -37.5 1.5t-32.5 3.5q5 -34 9 -52q9 -36 23 -50q44 -44 176 -44
q112 0 165 32q15 37 28 37q4 0 4 -8q0 -14 -12 -44q6 -13 27 -13q26 0 49 12q21 66 33 66q4 0 4 -11q0 -20 -10 -43q29 -13 44 -13q6 0 8 3q1 1 -8 39l17 36q12 -36 12 -52q0 -67 -44 -67q-23 0 -48 19q-15 -26 -59 -26q-48 0 -48 26q-19 -13 -64 -24q-55 -11 -121 -11
q-97 0 -143 28q-59 34 -60 126l-22 -32q-17 -25 -26 -26q12 -21 12 -41q0 -26 -16 -42q-8 -8 -21 -8q-20 0 -61 23q-14 -31 -42 -47q-3 -2 -9.5 -3t-13.5 -1.5t-13 -1t-9 -1.5l-11 -4q-6 0 -6 5q0 4 24 15q32 12 39 19l34 26q-10 16 -10 40q0 21 18 41q18 21 34 21l6 -2
q16 -10 29 -10q18 0 36 23l23 42q-38 12 -55 27q-30 27 -39 85h-2q-29 -50 -79 -50q-17 0 -39 8q-16 7 -16 12q0 25 43 58q20 16 41.5 26.5t43.5 17.5l-2 17l20 33q7 -108 21 -141q14 -32 56 -45l-13 132l19 43l17 -180q52 -6 95 -6q104 0 177 40q14 38 19 38q4 0 4 -9
q0 -12 -4 -25q38 -35 59 -35q26 0 42 43l-13 161q-74 -3 -88 74h-2l-7 -24.5t-7 -17.5q-11 -26 -27 -30l2 -2q70 4 70 -39q0 -30 -25 -46q-86 -59 -160 -59q-46 0 -74 23.5t-28 65.5q0 34 16 67q-28 8 -38 43h-2q-15 -51 -55 -51q-49 0 -47 77l-27 -24q-7 -7 -39 -7
q-49 0 -49 18q0 12 13 31q14 23 25 27l76 37v10l17 36l4 -120q1 -42 32 -42q15 0 29.5 10.5t16.5 22.5l-16 114l18 39l28 -161q9 -21 33 -21q23 0 23 13q0 23 -16 74l-10 32t-10 33l13 33q40 -123 40 -157q0 -23 -10 -44q-10 -28 -25 -28q-5 0 -9 3q-7 -18 -7 -39
q0 -75 91 -75q71 0 142 48q2 2 2 3q0 6 -38 12q-60 9 -61 10q-12 9 13 40q60 25 64 53q1 2 1 14q0 49 -5 106.5t-15 124.5l17 56q12 -106 21.5 -169.5t16.5 -86.5q18 -57 72 -66l-5 96l21 45l8 -140q28 10 60 36l30 -21q19 -12 39 -15q11 12 27.5 25.5t37.5 29.5
q53 38 70 38q18 0 41 -14q26 -15 26 -33zM1008 2q0 -50 -39 -108q-42 -64 -89 -64q-24 0 -59 16q-37 16 -37 23q0 4 5 4q7 0 27 -7q26 -8 35 -8q68 -2 140 106l-7 22q-18 -26 -37 -26q-14 0 -24.5 13t-11.5 28q-2 22 15 54q16 31 28 31t32 -24q22 -25 22 -60zM970 639
q-38 -14 -116 -51q-96 -47 -96 -61q0 -11 26 -25l-9 -24q-33 10 -33 40t26 44q126 73 211 102zM476 447q-3 -66 -13 -73l-25 242l22 57zM602 37l-26 -31l-48 35l-28 -36l-50 36l29 35l47 -35l27 33zM989 420q0 7 -18 16q-17 9 -26 9q-21 0 -60 -24l-27 -18t-20 -16
q3 -1 20 -1q20 0 40 2t42 6q49 10 49 26zM632 -121q0 -10 -0.5 -17.5t-1.5 -12.5q-6 -13 -25 -13q-10 0 -14 4q-15 -16 -30 -16q-8 0 -16.5 8.5t-12.5 8.5q-8 0 -37 -17q-29 -18 -70 -18q-44 0 -44 8q0 7 32 7q17 0 29 0.5t17 1.5q17 3 35 16q28 19 40 19q8 0 19 -8t13 -8
q15 0 18 17q1 13 11 13q4 0 4 -6q0 -7 -1 -9q2 -5 11 -6q12 0 12 12q0 16 11 16zM815 705l-6 -22l-195 -96l4 25zM169 263q-88 -34 -88 -52q0 -10 31 -10q33 0 59 24zM324 665q0 -32 -21 -32q-13 0 -21 8q-18 -15 -30 -15q-21 0 -21 27q0 19 3 27l6 6q-1 -37 17 -37
q12 0 19 16l-2 23l9 14l4 -30q1 -16 15 -16q12 0 11 15l-3 22l7 10q7 -17 7 -38zM189 487q-10 -5 -20 -9t-21 -8q-33 -16 -34 -24q-2 -11 25 -11q29 0 51 13zM214 -38q-4 20 -24 34t-34 14t-14 -12q0 -13 26 -27q24 -15 39 -15q8 0 7 6zM979 10q-6 32 -26 32q-16 0 -20 -25
q4 -18 31 -18q13 0 15 11z" />
    <glyph glyph-name="uniFE82" unicode="&#x622;" horiz-adv-x="230" arabic-form="final" 
d="M80 717h79v-636h78q23 0 23 -18v-39q0 -24 -23 -24h-157v717zM-62 856q24 25 45.5 34.5t45.5 9.5q15 0 38 -8.5t48 -19.5q26 -11 50.5 -20.5t44.5 -9.5q22 0 35 15t20 33l39 -20q-18 -39 -38 -55.5t-60 -16.5q-23 0 -45.5 8.5t-45.5 19.5t-45 19.5t-46 8.5
q-14 0 -29 -7.5t-29 -19.5z" />
    <glyph glyph-name="uniFE84" unicode="&#x623;" horiz-adv-x="230" arabic-form="final" 
d="M80 717h79v-636h78q23 0 23 -18v-39q0 -24 -23 -24h-157v717zM183 937q-11 3 -25 3q-23 0 -39 -11t-16 -34q0 -22 19 -41t61 -19h10v-37h-152v37h57q-20 15 -26.5 34.5t-6.5 30.5q0 32 23 54.5t65 22.5q15 0 36 -3z" />
    <glyph glyph-name="uniFE86" unicode="&#x624;" horiz-adv-x="552" arabic-form="final" 
d="M371 81v115q0 69 -30 107.5t-81 38.5q-23 0 -45 -9t-38.5 -26.5t-26.5 -41.5t-10 -54q0 -35 11 -60t30 -40.5t43 -22.5t51 -7h96zM559 81q23 0 23 -18v-39q0 -24 -23 -24h-110q-1 -62 -20 -106t-52.5 -72t-79.5 -40.5t-101 -12.5q-21 0 -43 1t-45 5q2 21 3.5 39t3.5 37
q23 -2 45 -3.5t42 -1.5q34 0 64.5 6t53.5 23t37 47t15 78h-93q-59 0 -100.5 17t-67 44t-37 61.5t-11.5 69.5q0 46 15 87.5t42 72.5t64.5 49t81.5 18q43 0 77 -14t57.5 -39t36 -60.5t12.5 -77.5v-147h110zM345 689q-6 1 -17 2t-19 1q-31 0 -51.5 -12.5t-20.5 -41.5
q0 -14 6 -28t18.5 -25t32 -18t45.5 -7h25v-50h-209v50h74q-23 21 -32 44.5t-9 41.5q0 19 7.5 36.5t22 31t36 21.5t49.5 8q12 0 24.5 -1t23.5 -3z" />
    <glyph glyph-name="uniFE88" unicode="&#x625;" horiz-adv-x="230" arabic-form="final" 
d="M80 717h79v-636h78q23 0 23 -18v-39q0 -24 -23 -24h-157v717zM181 -123q-11 3 -25 3q-23 0 -39 -11t-16 -34q0 -22 19 -41t61 -19h10v-37h-152v37h57q-20 15 -26.5 34.5t-6.5 30.5q0 32 23 54.5t65 22.5q15 0 36 -3z" />
    <glyph glyph-name="uniFE8A" unicode="&#x626;" horiz-adv-x="957" arabic-form="final" 
d="M964 81q23 0 23 -18v-39q0 -24 -23 -24h-152v172q0 42 -10 68t-28.5 40t-45.5 18.5t-61 4.5h-21v-245q0 -59 -20 -110.5t-62 -90t-107 -61t-154 -22.5q-81 0 -138 23.5t-94 60.5t-54 83t-17 91q0 51 15.5 93.5t40.5 80.5l64 -39q-19 -32 -28.5 -65.5t-9.5 -62.5
q0 -39 15 -72t44.5 -57t73 -37.5t99.5 -13.5q55 0 101.5 11.5t80.5 33.5t52.5 55t18.5 75v346h126q103 0 150.5 -48.5t47.5 -147.5v-103h73zM194 527q-6 1 -17 2t-19 1q-31 0 -51.5 -12.5t-20.5 -41.5q0 -14 6 -28t18.5 -25t32 -18t45.5 -7h25v-50h-209v50h74
q-23 21 -32 44.5t-9 41.5q0 19 7.5 36.5t22 31t36 21.5t49.5 8q12 0 24.5 -1t23.5 -3z" />
    <glyph glyph-name="uniFE8B" unicode="&#x626;" horiz-adv-x="303" arabic-form="initial" 
d="M-7 0q-23 0 -23 18v39q0 24 23 24h150v299h80v-380h-230zM262 689q-6 1 -17 2t-19 1q-31 0 -51.5 -12.5t-20.5 -41.5q0 -14 6 -28t18.5 -25t32 -18t45.5 -7h25v-50h-209v50h74q-23 21 -32 44.5t-9 41.5q0 19 7.5 36.5t22 31t36 21.5t49.5 8q12 0 24.5 -1t23.5 -3z" />
    <glyph glyph-name="uniFE8C" unicode="&#x626;" horiz-adv-x="348" arabic-form="medial" 
d="M-7 0q-23 0 -23 18v39q0 24 23 24h86q36 0 48.5 20.5t12.5 55.5v223h79v-181q0 -25 5.5 -46.5t19 -37.5t35.5 -25t54 -9h22q23 0 23 -18v-39q0 -24 -23 -24h-25q-45 0 -77 18t-44 60q-11 -25 -24 -40.5t-28.5 -23.5t-33.5 -11t-38 -3h-92zM272 689q-6 1 -17 2t-19 1
q-31 0 -51.5 -12.5t-20.5 -41.5q0 -14 6 -28t18.5 -25t32 -18t45.5 -7h25v-50h-209v50h74q-23 21 -32 44.5t-9 41.5q0 19 7.5 36.5t22 31t36 21.5t49.5 8q12 0 24.5 -1t23.5 -3z" />
    <glyph glyph-name="uniFE8E" unicode="&#x627;" horiz-adv-x="230" arabic-form="final" 
d="M80 717h79v-636h78q23 0 23 -18v-39q0 -24 -23 -24h-157v717z" />
    <glyph glyph-name="uniFE90" unicode="&#x628;" horiz-adv-x="881" arabic-form="final" 
d="M888 81q23 0 23 -18v-39q0 -24 -23 -24h-27q-43 0 -74.5 17.5t-45.5 60.5q-19 -48 -51 -63t-74 -15h-487q-36 0 -60.5 11t-40 29.5t-22 43t-6.5 51.5v158h79v-137q0 -40 14 -57.5t43 -17.5h476q37 0 48.5 20.5t11.5 55.5v223h79v-181q0 -25 5.5 -46.5t18.5 -37.5t35 -25
t54 -9h24zM338 -161q0 19 13.5 32.5t32.5 13.5t32.5 -13.5t13.5 -32.5t-13.5 -32.5t-32.5 -13.5t-32.5 13.5t-13.5 32.5z" />
    <glyph glyph-name="uniFE91" unicode="&#x628;" horiz-adv-x="303" arabic-form="initial" 
d="M-7 0q-23 0 -23 18v39q0 24 23 24h150v299h80v-380h-230zM130 -161q0 19 13.5 32.5t32.5 13.5t32.5 -13.5t13.5 -32.5t-13.5 -32.5t-32.5 -13.5t-32.5 13.5t-13.5 32.5z" />
    <glyph glyph-name="uniFE92" unicode="&#x628;" horiz-adv-x="348" arabic-form="medial" 
d="M-7 0q-23 0 -23 18v39q0 24 23 24h86q36 0 48.5 20.5t12.5 55.5v223h79v-181q0 -25 5.5 -46.5t19 -37.5t35.5 -25t54 -9h22q23 0 23 -18v-39q0 -24 -23 -24h-25q-45 0 -77 18t-44 60q-11 -25 -24 -40.5t-28.5 -23.5t-33.5 -11t-38 -3h-92zM134 -161q0 19 13.5 32.5
t32.5 13.5t32.5 -13.5t13.5 -32.5t-13.5 -32.5t-32.5 -13.5t-32.5 13.5t-13.5 32.5z" />
    <glyph glyph-name="uniFE94" unicode="&#x629;" horiz-adv-x="461" arabic-form="final" 
d="M308 81v115q0 69 -28.5 107.5t-82.5 38.5q-23 0 -44 -9t-38 -26.5t-27 -41.5t-10 -54q0 -35 11 -60t30 -40.5t43 -22.5t51 -7h95zM468 81q23 0 23 -18v-39q0 -24 -23 -24h-252q-59 0 -100.5 17t-67 44t-37 61.5t-11.5 69.5q0 46 15.5 87.5t42.5 72.5t64.5 49t81.5 18
q42 0 76 -14t57.5 -39t36.5 -60.5t13 -77.5v-147h81zM89 571q0 19 13.5 32.5t32.5 13.5t32.5 -13.5t13.5 -32.5t-13.5 -32.5t-32.5 -13.5t-32.5 13.5t-13.5 32.5zM222 571q0 19 13.5 32.5t32.5 13.5t32.5 -13.5t13.5 -32.5t-13.5 -32.5t-32.5 -13.5t-32.5 13.5t-13.5 32.5z
" />
    <glyph glyph-name="uniFE96" unicode="&#x62a;" horiz-adv-x="881" arabic-form="final" 
d="M888 81q23 0 23 -18v-39q0 -24 -23 -24h-27q-43 0 -74.5 17.5t-45.5 60.5q-19 -48 -51 -63t-74 -15h-487q-36 0 -60.5 11t-40 29.5t-22 43t-6.5 51.5v158h79v-137q0 -40 14 -57.5t43 -17.5h476q37 0 48.5 20.5t11.5 55.5v223h79v-181q0 -25 5.5 -46.5t18.5 -37.5t35 -25
t54 -9h24zM266 571q0 19 13.5 32.5t32.5 13.5t32.5 -13.5t13.5 -32.5t-13.5 -32.5t-32.5 -13.5t-32.5 13.5t-13.5 32.5zM399 571q0 19 13.5 32.5t32.5 13.5t32.5 -13.5t13.5 -32.5t-13.5 -32.5t-32.5 -13.5t-32.5 13.5t-13.5 32.5z" />
    <glyph glyph-name="uniFE97" unicode="&#x62a;" horiz-adv-x="303" arabic-form="initial" 
d="M-7 0q-23 0 -23 18v39q0 24 23 24h150v299h80v-380h-230zM65 571q0 19 13.5 32.5t32.5 13.5t32.5 -13.5t13.5 -32.5t-13.5 -32.5t-32.5 -13.5t-32.5 13.5t-13.5 32.5zM198 571q0 19 13.5 32.5t32.5 13.5t32.5 -13.5t13.5 -32.5t-13.5 -32.5t-32.5 -13.5t-32.5 13.5
t-13.5 32.5z" />
    <glyph glyph-name="uniFE98" unicode="&#x62a;" horiz-adv-x="348" arabic-form="medial" 
d="M-7 0q-23 0 -23 18v39q0 24 23 24h86q36 0 48.5 20.5t12.5 55.5v223h79v-181q0 -25 5.5 -46.5t19 -37.5t35.5 -25t54 -9h22q23 0 23 -18v-39q0 -24 -23 -24h-25q-45 0 -77 18t-44 60q-11 -25 -24 -40.5t-28.5 -23.5t-33.5 -11t-38 -3h-92zM67 571q0 19 13.5 32.5
t32.5 13.5t32.5 -13.5t13.5 -32.5t-13.5 -32.5t-32.5 -13.5t-32.5 13.5t-13.5 32.5zM200 571q0 19 13.5 32.5t32.5 13.5t32.5 -13.5t13.5 -32.5t-13.5 -32.5t-32.5 -13.5t-32.5 13.5t-13.5 32.5z" />
    <glyph glyph-name="uniFE9A" unicode="&#x62b;" horiz-adv-x="881" arabic-form="final" 
d="M888 81q23 0 23 -18v-39q0 -24 -23 -24h-27q-43 0 -74.5 17.5t-45.5 60.5q-19 -48 -51 -63t-74 -15h-487q-36 0 -60.5 11t-40 29.5t-22 43t-6.5 51.5v158h79v-137q0 -40 14 -57.5t43 -17.5h476q37 0 48.5 20.5t11.5 55.5v223h79v-181q0 -25 5.5 -46.5t18.5 -37.5t35 -25
t54 -9h24zM280 571q0 19 13.5 32.5t32.5 13.5t32.5 -13.5t13.5 -32.5t-13.5 -32.5t-32.5 -13.5t-32.5 13.5t-13.5 32.5zM413 571q0 19 13.5 32.5t32.5 13.5t32.5 -13.5t13.5 -32.5t-13.5 -32.5t-32.5 -13.5t-32.5 13.5t-13.5 32.5zM347 676q0 19 13.5 32.5t32.5 13.5
t32.5 -13.5t13.5 -32.5t-13.5 -32.5t-32.5 -13.5t-32.5 13.5t-13.5 32.5z" />
    <glyph glyph-name="uniFE9B" unicode="&#x62b;" horiz-adv-x="303" arabic-form="initial" 
d="M-7 0q-23 0 -23 18v39q0 24 23 24h150v299h80v-380h-230zM65 571q0 19 13.5 32.5t32.5 13.5t32.5 -13.5t13.5 -32.5t-13.5 -32.5t-32.5 -13.5t-32.5 13.5t-13.5 32.5zM198 571q0 19 13.5 32.5t32.5 13.5t32.5 -13.5t13.5 -32.5t-13.5 -32.5t-32.5 -13.5t-32.5 13.5
t-13.5 32.5zM132 676q0 19 13.5 32.5t32.5 13.5t32.5 -13.5t13.5 -32.5t-13.5 -32.5t-32.5 -13.5t-32.5 13.5t-13.5 32.5z" />
    <glyph glyph-name="uniFE9C" unicode="&#x62b;" horiz-adv-x="348" arabic-form="medial" 
d="M-7 0q-23 0 -23 18v39q0 24 23 24h86q36 0 48.5 20.5t12.5 55.5v223h79v-181q0 -25 5.5 -46.5t19 -37.5t35.5 -25t54 -9h22q23 0 23 -18v-39q0 -24 -23 -24h-25q-45 0 -77 18t-44 60q-11 -25 -24 -40.5t-28.5 -23.5t-33.5 -11t-38 -3h-92zM69 571q0 19 13.5 32.5
t32.5 13.5t32.5 -13.5t13.5 -32.5t-13.5 -32.5t-32.5 -13.5t-32.5 13.5t-13.5 32.5zM202 571q0 19 13.5 32.5t32.5 13.5t32.5 -13.5t13.5 -32.5t-13.5 -32.5t-32.5 -13.5t-32.5 13.5t-13.5 32.5zM136 676q0 19 13.5 32.5t32.5 13.5t32.5 -13.5t13.5 -32.5t-13.5 -32.5
t-32.5 -13.5t-32.5 13.5t-13.5 32.5z" />
    <glyph glyph-name="uniFE9E" unicode="&#x62c;" horiz-adv-x="534" arabic-form="final" 
d="M541 81q23 0 23 -18v-39q0 -24 -23 -24h-19q-42 0 -73.5 14t-55.5 46q-22 -38 -41.5 -49t-39.5 -11h-71q-39 0 -68 -11.5t-48.5 -30t-29 -43t-9.5 -51.5q0 -63 41 -101.5t126 -38.5q22 0 49.5 4t47.5 9q2 -20 5.5 -36t5.5 -33q-20 -8 -57 -14t-74 -6q-42 0 -83 12
t-74 37.5t-53 65.5t-20 96q0 52 18 93.5t51.5 70t80.5 43.5t106 15h125q-14 20 -24 51.5t-18 90.5q-8 64 -35.5 90t-73.5 26q-19 0 -48.5 -6.5t-55.5 -17.5l-20 78q12 4 29.5 9t37 9t40.5 7t40 3q46 0 77 -16.5t50.5 -42t28.5 -57t11 -61.5q3 -33 9.5 -63t18.5 -52t31.5 -35
t49.5 -13h12zM231 -151q0 19 13.5 32.5t32.5 13.5t32.5 -13.5t13.5 -32.5t-13.5 -32.5t-32.5 -13.5t-32.5 13.5t-13.5 32.5z" />
    <glyph glyph-name="uniFE9F" unicode="&#x62c;" horiz-adv-x="486" arabic-form="initial" 
d="M346 81q-29 32 -44 70t-20 72q-15 116 -109 116q-20 0 -48 -5.5t-56 -17.5q-5 22 -10.5 39t-10.5 37q27 8 67.5 18.5t80.5 10.5t70 -13t50 -36.5t31.5 -56t15.5 -71.5q3 -22 6.5 -44t11 -43t20.5 -39.5t35 -32.5v-85h-443q-23 0 -23 18v39q0 24 23 24h353zM153 -161
q0 19 13.5 32.5t32.5 13.5t32.5 -13.5t13.5 -32.5t-13.5 -32.5t-32.5 -13.5t-32.5 13.5t-13.5 32.5z" />
    <glyph glyph-name="uniFEA0" unicode="&#x62c;" horiz-adv-x="477" arabic-form="medial" 
d="M-7 0q-23 0 -23 18v39q0 24 23 24h331q-14 20 -24 51.5t-18 90.5q-8 64 -35.5 90t-73.5 26q-19 0 -48.5 -6.5t-55.5 -17.5l-20 78q12 4 29.5 9t37 9t40.5 7t40 3q46 0 77 -16.5t50.5 -42t28.5 -57t11 -61.5q3 -33 9.5 -63t18.5 -52t31.5 -35t49.5 -13h12q23 0 23 -18v-39
q0 -24 -23 -24h-19q-42 0 -73.5 14t-55.5 46q-22 -38 -41.5 -49t-39.5 -11h-262zM157 -161q0 19 13.5 32.5t32.5 13.5t32.5 -13.5t13.5 -32.5t-13.5 -32.5t-32.5 -13.5t-32.5 13.5t-13.5 32.5z" />
    <glyph glyph-name="uniFEA2" unicode="&#x62d;" horiz-adv-x="534" arabic-form="final" 
d="M541 81q23 0 23 -18v-39q0 -24 -23 -24h-19q-42 0 -73.5 14t-55.5 46q-22 -38 -41.5 -49t-39.5 -11h-71q-39 0 -68 -11.5t-48.5 -30t-29 -43t-9.5 -51.5q0 -63 41 -101.5t126 -38.5q22 0 49.5 4t47.5 9q2 -20 5.5 -36t5.5 -33q-20 -8 -57 -14t-74 -6q-42 0 -83 12
t-74 37.5t-53 65.5t-20 96q0 52 18 93.5t51.5 70t80.5 43.5t106 15h125q-14 20 -24 51.5t-18 90.5q-8 64 -35.5 90t-73.5 26q-19 0 -48.5 -6.5t-55.5 -17.5l-20 78q12 4 29.5 9t37 9t40.5 7t40 3q46 0 77 -16.5t50.5 -42t28.5 -57t11 -61.5q3 -33 9.5 -63t18.5 -52t31.5 -35
t49.5 -13h12z" />
    <glyph glyph-name="uniFEA3" unicode="&#x62d;" horiz-adv-x="486" arabic-form="initial" 
d="M346 81q-29 32 -44 70t-20 72q-15 116 -109 116q-20 0 -48 -5.5t-56 -17.5q-5 22 -10.5 39t-10.5 37q27 8 67.5 18.5t80.5 10.5t70 -13t50 -36.5t31.5 -56t15.5 -71.5q3 -22 6.5 -44t11 -43t20.5 -39.5t35 -32.5v-85h-443q-23 0 -23 18v39q0 24 23 24h353z" />
    <glyph glyph-name="uniFEA4" unicode="&#x62d;" horiz-adv-x="477" arabic-form="medial" 
d="M-7 0q-23 0 -23 18v39q0 24 23 24h331q-14 20 -24 51.5t-18 90.5q-8 64 -35.5 90t-73.5 26q-19 0 -48.5 -6.5t-55.5 -17.5l-20 78q12 4 29.5 9t37 9t40.5 7t40 3q46 0 77 -16.5t50.5 -42t28.5 -57t11 -61.5q3 -33 9.5 -63t18.5 -52t31.5 -35t49.5 -13h12q23 0 23 -18v-39
q0 -24 -23 -24h-19q-42 0 -73.5 14t-55.5 46q-22 -38 -41.5 -49t-39.5 -11h-262z" />
    <glyph glyph-name="uniFEA6" unicode="&#x62e;" horiz-adv-x="534" arabic-form="final" 
d="M541 81q23 0 23 -18v-39q0 -24 -23 -24h-19q-42 0 -73.5 14t-55.5 46q-22 -38 -41.5 -49t-39.5 -11h-71q-39 0 -68 -11.5t-48.5 -30t-29 -43t-9.5 -51.5q0 -63 41 -101.5t126 -38.5q22 0 49.5 4t47.5 9q2 -20 5.5 -36t5.5 -33q-20 -8 -57 -14t-74 -6q-42 0 -83 12
t-74 37.5t-53 65.5t-20 96q0 52 18 93.5t51.5 70t80.5 43.5t106 15h125q-14 20 -24 51.5t-18 90.5q-8 64 -35.5 90t-73.5 26q-19 0 -48.5 -6.5t-55.5 -17.5l-20 78q12 4 29.5 9t37 9t40.5 7t40 3q46 0 77 -16.5t50.5 -42t28.5 -57t11 -61.5q3 -33 9.5 -63t18.5 -52t31.5 -35
t49.5 -13h12zM208 571q0 19 13.5 32.5t32.5 13.5t32.5 -13.5t13.5 -32.5t-13.5 -32.5t-32.5 -13.5t-32.5 13.5t-13.5 32.5z" />
    <glyph glyph-name="uniFEA7" unicode="&#x62e;" horiz-adv-x="486" arabic-form="initial" 
d="M346 81q-29 32 -44 70t-20 72q-15 116 -109 116q-20 0 -48 -5.5t-56 -17.5q-5 22 -10.5 39t-10.5 37q27 8 67.5 18.5t80.5 10.5t70 -13t50 -36.5t31.5 -56t15.5 -71.5q3 -22 6.5 -44t11 -43t20.5 -39.5t35 -32.5v-85h-443q-23 0 -23 18v39q0 24 23 24h353zM152 571
q0 19 13.5 32.5t32.5 13.5t32.5 -13.5t13.5 -32.5t-13.5 -32.5t-32.5 -13.5t-32.5 13.5t-13.5 32.5z" />
    <glyph glyph-name="uniFEA8" unicode="&#x62e;" horiz-adv-x="477" arabic-form="medial" 
d="M-7 0q-23 0 -23 18v39q0 24 23 24h331q-14 20 -24 51.5t-18 90.5q-8 64 -35.5 90t-73.5 26q-19 0 -48.5 -6.5t-55.5 -17.5l-20 78q12 4 29.5 9t37 9t40.5 7t40 3q46 0 77 -16.5t50.5 -42t28.5 -57t11 -61.5q3 -33 9.5 -63t18.5 -52t31.5 -35t49.5 -13h12q23 0 23 -18v-39
q0 -24 -23 -24h-19q-42 0 -73.5 14t-55.5 46q-22 -38 -41.5 -49t-39.5 -11h-262zM147 571q0 19 13.5 32.5t32.5 13.5t32.5 -13.5t13.5 -32.5t-13.5 -32.5t-32.5 -13.5t-32.5 13.5t-13.5 32.5z" />
    <glyph glyph-name="uniFEAA" unicode="&#x62f;" horiz-adv-x="535" arabic-form="final" 
d="M542 81q23 0 23 -18v-39q0 -24 -23 -24h-25q-20 0 -39 3.5t-35 12.5t-28 25.5t-18 42.5q-6 -22 -19 -38t-30 -26t-37 -15t-39 -5h-229v81h220q36 0 49.5 18t13.5 56q0 48 -3.5 84t-18.5 59t-44 34.5t-80 11.5h-80v77h104q57 0 95 -16t61 -44t33 -66t10 -83
q0 -66 27.5 -98.5t88.5 -32.5h23z" />
    <glyph glyph-name="uniFEAC" unicode="&#x630;" horiz-adv-x="535" arabic-form="final" 
d="M542 81q23 0 23 -18v-39q0 -24 -23 -24h-25q-20 0 -39 3.5t-35 12.5t-28 25.5t-18 42.5q-6 -22 -19 -38t-30 -26t-37 -15t-39 -5h-229v81h220q36 0 49.5 18t13.5 56q0 48 -3.5 84t-18.5 59t-44 34.5t-80 11.5h-80v77h104q57 0 95 -16t61 -44t33 -66t10 -83
q0 -66 27.5 -98.5t88.5 -32.5h23zM130 571q0 19 13.5 32.5t32.5 13.5t32.5 -13.5t13.5 -32.5t-13.5 -32.5t-32.5 -13.5t-32.5 13.5t-13.5 32.5z" />
    <glyph glyph-name="uniFEAE" unicode="&#x631;" horiz-adv-x="377" arabic-form="final" 
d="M384 81q23 0 23 -18v-39q0 -24 -23 -24h-19q-17 0 -34 2t-33 9.5t-29.5 22t-21.5 38.5v-76q0 -43 -11.5 -80.5t-34 -65.5t-56 -44t-76.5 -16q-23 0 -42.5 2t-30.5 4l9 79l23 -4q10 -2 21 -2.5t20 -0.5q58 0 78.5 34t20.5 103v375h79v-181q0 -25 5.5 -46.5t19 -37.5
t35.5 -25t55 -9h22z" />
    <glyph glyph-name="uniFEB0" unicode="&#x632;" horiz-adv-x="377" arabic-form="final" 
d="M384 81q23 0 23 -18v-39q0 -24 -23 -24h-19q-17 0 -34 2t-33 9.5t-29.5 22t-21.5 38.5v-76q0 -43 -11.5 -80.5t-34 -65.5t-56 -44t-76.5 -16q-23 0 -42.5 2t-30.5 4l9 79l23 -4q10 -2 21 -2.5t20 -0.5q58 0 78.5 34t20.5 103v375h79v-181q0 -25 5.5 -46.5t19 -37.5
t35.5 -25t55 -9h22zM163 571q0 19 13.5 32.5t32.5 13.5t32.5 -13.5t13.5 -32.5t-13.5 -32.5t-32.5 -13.5t-32.5 13.5t-13.5 32.5z" />
    <glyph glyph-name="uniFEB2" unicode="&#x633;" horiz-adv-x="1248" arabic-form="final" 
d="M1255 81q23 0 23 -18v-39q0 -24 -23 -24h-26q-17 0 -35 3t-34.5 11.5t-30 24t-20.5 39.5q-12 -26 -25.5 -41.5t-29 -23.5t-33 -10.5t-37.5 -2.5h-28q-42 0 -74.5 16t-47.5 62q-11 -25 -23.5 -40.5t-28 -23.5t-33.5 -11t-39 -3h-35q-14 0 -30 3t-32 11.5t-29.5 24
t-22.5 40.5q-1 -66 -21.5 -121.5t-57 -95.5t-88 -62.5t-114.5 -22.5q-81 0 -135 23t-86 60t-45.5 82t-13.5 89q0 45 13 90.5t39 83.5q19 -11 34.5 -19t33.5 -19q-19 -32 -28.5 -67t-9.5 -69q0 -26 9 -56t31.5 -56t62 -43.5t99.5 -17.5q39 0 75 11t63.5 34t44.5 59t17 86v233
h79v-82q0 -52 25.5 -85t88.5 -33h27q38 0 49.5 20.5t11.5 55.5v166h79v-124q0 -25 5.5 -46.5t19 -37.5t35.5 -25t55 -9h21q31 0 45.5 17t14.5 59v223h79v-181q0 -61 29.5 -89.5t84.5 -28.5h22z" />
    <glyph glyph-name="uniFEB3" unicode="&#x633;" horiz-adv-x="930" arabic-form="initial" 
d="M-7 0q-23 0 -23 18v39q0 24 23 24h163q37 0 48.5 20.5t11.5 55.5v124h79v-82q0 -25 5.5 -46.5t19 -37.5t35.5 -25t54 -9h26q38 0 49 20t11 56v166h80v-124q0 -25 5.5 -46.5t18.5 -37.5t35 -25t54 -9h83v299h79v-380h-165q-42 0 -73.5 15t-46.5 63q-9 -24 -22 -39.5
t-29 -24t-34.5 -11.5t-38.5 -3h-34q-46 0 -75 16.5t-48 61.5q-20 -42 -52 -60t-77 -18h-162z" />
    <glyph glyph-name="uniFEB4" unicode="&#x633;" horiz-adv-x="980" arabic-form="medial" 
d="M-7 0q-23 0 -23 18v39q0 24 23 24h165q36 0 48 20.5t12 55.5v124h79v-82q0 -24 5.5 -45.5t19 -37.5t35.5 -25.5t55 -9.5h19q37 0 48.5 20.5t11.5 55.5v166h80v-124q0 -25 5.5 -46.5t19 -37.5t35 -25t54.5 -9h25q39 0 50.5 20.5t11.5 55.5v223h78v-181q0 -25 5.5 -46.5
t19 -37.5t35 -25t54.5 -9h23q23 0 23 -18v-39q0 -24 -23 -24h-26q-43 0 -75 16.5t-46 61.5q-11 -27 -24.5 -42.5t-29.5 -23.5t-33.5 -10t-36.5 -2h-34q-45 0 -74.5 16t-46.5 62q-23 -48 -54.5 -63t-69.5 -15h-28q-45 0 -75.5 16.5t-46.5 61.5q-11 -26 -24.5 -41.5t-30 -23.5
t-35.5 -10.5t-40 -2.5h-164z" />
    <glyph glyph-name="uniFEB6" unicode="&#x634;" horiz-adv-x="1248" arabic-form="final" 
d="M1255 81q23 0 23 -18v-39q0 -24 -23 -24h-26q-17 0 -35 3t-34.5 11.5t-30 24t-20.5 39.5q-12 -26 -25.5 -41.5t-29 -23.5t-33 -10.5t-37.5 -2.5h-28q-42 0 -74.5 16t-47.5 62q-11 -25 -23.5 -40.5t-28 -23.5t-33.5 -11t-39 -3h-35q-14 0 -30 3t-32 11.5t-29.5 24
t-22.5 40.5q-1 -66 -21.5 -121.5t-57 -95.5t-88 -62.5t-114.5 -22.5q-81 0 -135 23t-86 60t-45.5 82t-13.5 89q0 45 13 90.5t39 83.5q19 -11 34.5 -19t33.5 -19q-19 -32 -28.5 -67t-9.5 -69q0 -26 9 -56t31.5 -56t62 -43.5t99.5 -17.5q39 0 75 11t63.5 34t44.5 59t17 86v233
h79v-82q0 -52 25.5 -85t88.5 -33h27q38 0 49.5 20.5t11.5 55.5v166h79v-124q0 -25 5.5 -46.5t19 -37.5t35.5 -25t55 -9h21q31 0 45.5 17t14.5 59v223h79v-181q0 -61 29.5 -89.5t84.5 -28.5h22zM694 571q0 19 13.5 32.5t32.5 13.5t32.5 -13.5t13.5 -32.5t-13.5 -32.5
t-32.5 -13.5t-32.5 13.5t-13.5 32.5zM827 571q0 19 13.5 32.5t32.5 13.5t32.5 -13.5t13.5 -32.5t-13.5 -32.5t-32.5 -13.5t-32.5 13.5t-13.5 32.5zM761 676q0 19 13.5 32.5t32.5 13.5t32.5 -13.5t13.5 -32.5t-13.5 -32.5t-32.5 -13.5t-32.5 13.5t-13.5 32.5z" />
    <glyph glyph-name="uniFEB7" unicode="&#x634;" horiz-adv-x="930" arabic-form="initial" 
d="M-7 0q-23 0 -23 18v39q0 24 23 24h163q37 0 48.5 20.5t11.5 55.5v124h79v-82q0 -25 5.5 -46.5t19 -37.5t35.5 -25t54 -9h26q38 0 49 20t11 56v166h80v-124q0 -25 5.5 -46.5t18.5 -37.5t35 -25t54 -9h83v299h79v-380h-165q-42 0 -73.5 15t-46.5 63q-9 -24 -22 -39.5
t-29 -24t-34.5 -11.5t-38.5 -3h-34q-46 0 -75 16.5t-48 61.5q-20 -42 -52 -60t-77 -18h-162zM419 571q0 19 13.5 32.5t32.5 13.5t32.5 -13.5t13.5 -32.5t-13.5 -32.5t-32.5 -13.5t-32.5 13.5t-13.5 32.5zM552 571q0 19 13.5 32.5t32.5 13.5t32.5 -13.5t13.5 -32.5
t-13.5 -32.5t-32.5 -13.5t-32.5 13.5t-13.5 32.5zM486 676q0 19 13.5 32.5t32.5 13.5t32.5 -13.5t13.5 -32.5t-13.5 -32.5t-32.5 -13.5t-32.5 13.5t-13.5 32.5z" />
    <glyph glyph-name="uniFEB8" unicode="&#x634;" horiz-adv-x="980" arabic-form="medial" 
d="M-7 0q-23 0 -23 18v39q0 24 23 24h165q36 0 48 20.5t12 55.5v124h79v-82q0 -24 5.5 -45.5t19 -37.5t35.5 -25.5t55 -9.5h19q37 0 48.5 20.5t11.5 55.5v166h80v-124q0 -25 5.5 -46.5t19 -37.5t35 -25t54.5 -9h25q39 0 50.5 20.5t11.5 55.5v223h78v-181q0 -25 5.5 -46.5
t19 -37.5t35 -25t54.5 -9h23q23 0 23 -18v-39q0 -24 -23 -24h-26q-43 0 -75 16.5t-46 61.5q-11 -27 -24.5 -42.5t-29.5 -23.5t-33.5 -10t-36.5 -2h-34q-45 0 -74.5 16t-46.5 62q-23 -48 -54.5 -63t-69.5 -15h-28q-45 0 -75.5 16.5t-46.5 61.5q-11 -26 -24.5 -41.5t-30 -23.5
t-35.5 -10.5t-40 -2.5h-164zM422 571q0 19 13.5 32.5t32.5 13.5t32.5 -13.5t13.5 -32.5t-13.5 -32.5t-32.5 -13.5t-32.5 13.5t-13.5 32.5zM555 571q0 19 13.5 32.5t32.5 13.5t32.5 -13.5t13.5 -32.5t-13.5 -32.5t-32.5 -13.5t-32.5 13.5t-13.5 32.5zM489 676q0 19 13.5 32.5
t32.5 13.5t32.5 -13.5t13.5 -32.5t-13.5 -32.5t-32.5 -13.5t-32.5 13.5t-13.5 32.5z" />
    <glyph glyph-name="uniFEBA" unicode="&#x635;" horiz-adv-x="1173" arabic-form="final" 
d="M917 81q37 0 47.5 19.5t10.5 61.5t-8.5 76t-27 59t-49.5 38.5t-76 13.5q-46 0 -89.5 -22t-77.5 -59t-56.5 -85.5t-26.5 -101.5h353zM1180 81q23 0 23 -18v-39q0 -24 -23 -24h-11q-46 0 -79.5 15.5t-49.5 61.5q-20 -38 -52.5 -57.5t-70.5 -19.5h-359q-9 -50 -32.5 -91
t-59.5 -70.5t-83 -45.5t-104 -16q-81 0 -134.5 23t-86 60t-45.5 82t-13 89q0 45 12.5 90.5t39.5 83.5q19 -11 34 -19t33 -19q-19 -32 -28 -67t-9 -69q0 -26 9 -56t31.5 -56t61.5 -43.5t99 -17.5q39 0 75 11t64 34t45 59t17 86v333h80v-144q43 88 109 140.5t154 52.5
q59 0 102 -20.5t70.5 -56t41 -83t13.5 -100.5q0 -48 28.5 -68.5t88.5 -20.5h9z" />
    <glyph glyph-name="uniFEBB" unicode="&#x635;" horiz-adv-x="785" arabic-form="initial" 
d="M633 162q0 101 -41.5 144t-117.5 43q-41 0 -83 -19.5t-77.5 -55t-60 -84.5t-30.5 -109h410v81zM-7 0q-23 0 -23 18v39q0 24 23 24h151v300h80v-144q45 91 110 142t153 51q54 0 96.5 -18t72 -51t44.5 -79t15 -103v-179h-722z" />
    <glyph glyph-name="uniFEBC" unicode="&#x635;" horiz-adv-x="830" arabic-form="medial" 
d="M575 81q36 0 46 19t10 61q0 84 -42.5 136t-118.5 52q-49 0 -93 -22.5t-77.5 -60t-54.5 -86t-24 -99.5h354zM-7 0q-23 0 -23 18v39q0 24 23 24h150v298h78v-144q28 55 59.5 92.5t65 59.5t68.5 31.5t70 9.5q54 0 96 -20t71 -55t44.5 -82t15.5 -101q0 -48 28.5 -68.5
t88.5 -20.5h9q23 0 23 -18v-39q0 -24 -23 -24h-11q-46 0 -79.5 15.5t-49.5 61.5q-20 -38 -52.5 -57.5t-70.5 -19.5h-581z" />
    <glyph glyph-name="uniFEBE" unicode="&#x636;" horiz-adv-x="1173" arabic-form="final" 
d="M917 81q37 0 47.5 19.5t10.5 61.5t-8.5 76t-27 59t-49.5 38.5t-76 13.5q-46 0 -89.5 -22t-77.5 -59t-56.5 -85.5t-26.5 -101.5h353zM1180 81q23 0 23 -18v-39q0 -24 -23 -24h-11q-46 0 -79.5 15.5t-49.5 61.5q-20 -38 -52.5 -57.5t-70.5 -19.5h-359q-9 -50 -32.5 -91
t-59.5 -70.5t-83 -45.5t-104 -16q-81 0 -134.5 23t-86 60t-45.5 82t-13 89q0 45 12.5 90.5t39.5 83.5q19 -11 34 -19t33 -19q-19 -32 -28 -67t-9 -69q0 -26 9 -56t31.5 -56t61.5 -43.5t99 -17.5q39 0 75 11t64 34t45 59t17 86v333h80v-144q43 88 109 140.5t154 52.5
q59 0 102 -20.5t70.5 -56t41 -83t13.5 -100.5q0 -48 28.5 -68.5t88.5 -20.5h9zM757 571q0 19 13.5 32.5t32.5 13.5t32.5 -13.5t13.5 -32.5t-13.5 -32.5t-32.5 -13.5t-32.5 13.5t-13.5 32.5z" />
    <glyph glyph-name="uniFEBF" unicode="&#x636;" horiz-adv-x="785" arabic-form="initial" 
d="M633 162q0 101 -41.5 144t-117.5 43q-41 0 -83 -19.5t-77.5 -55t-60 -84.5t-30.5 -109h410v81zM-7 0q-23 0 -23 18v39q0 24 23 24h151v300h80v-144q45 91 110 142t153 51q54 0 96.5 -18t72 -51t44.5 -79t15 -103v-179h-722zM415 571q0 19 13.5 32.5t32.5 13.5t32.5 -13.5
t13.5 -32.5t-13.5 -32.5t-32.5 -13.5t-32.5 13.5t-13.5 32.5z" />
    <glyph glyph-name="uniFEC0" unicode="&#x636;" horiz-adv-x="830" arabic-form="medial" 
d="M575 81q36 0 46 19t10 61q0 84 -42.5 136t-118.5 52q-49 0 -93 -22.5t-77.5 -60t-54.5 -86t-24 -99.5h354zM-7 0q-23 0 -23 18v39q0 24 23 24h150v298h78v-144q28 55 59.5 92.5t65 59.5t68.5 31.5t70 9.5q54 0 96 -20t71 -55t44.5 -82t15.5 -101q0 -48 28.5 -68.5
t88.5 -20.5h9q23 0 23 -18v-39q0 -24 -23 -24h-11q-46 0 -79.5 15.5t-49.5 61.5q-20 -38 -52.5 -57.5t-70.5 -19.5h-581zM439 571q0 19 13.5 32.5t32.5 13.5t32.5 -13.5t13.5 -32.5t-13.5 -32.5t-32.5 -13.5t-32.5 13.5t-13.5 32.5z" />
    <glyph glyph-name="uniFEC2" unicode="&#x637;" horiz-adv-x="785" arabic-form="final" 
d="M530 81q36 0 46 19t10 61q0 84 -42.5 136t-118.5 52q-49 0 -93 -22.5t-77.5 -60t-54.5 -86t-24 -99.5h354zM792 81q23 0 23 -18v-39q0 -24 -23 -24h-11q-46 0 -79.5 15.5t-49.5 61.5q-20 -38 -52.5 -57.5t-70.5 -19.5h-529v81h99v636h77v-482q28 55 59.5 92.5t65 59.5
t68.5 31.5t70 9.5q54 0 96 -20t71 -55t44.5 -82t15.5 -101q0 -48 28.5 -68.5t88.5 -20.5h9z" />
    <glyph glyph-name="uniFEC3" unicode="&#x637;" horiz-adv-x="786" arabic-form="initial" 
d="M-7 0q-23 0 -23 18v39q0 24 23 24h152v636h80v-480q28 55 59.5 92.5t65 59.5t68.5 31.5t70 9.5q56 0 98.5 -19.5t71.5 -53t43.5 -79.5t14.5 -99v-179h-723zM634 167q0 52 -12 87t-33 56t-50.5 30t-63.5 9q-41 0 -82.5 -19t-76.5 -54t-60 -84.5t-32 -110.5h410v86z" />
    <glyph glyph-name="uniFEC4" unicode="&#x637;" horiz-adv-x="829" arabic-form="medial" 
d="M574 81q36 0 46 19t10 61q0 84 -42.5 136t-118.5 52q-49 0 -93 -22.5t-77.5 -60t-54.5 -86t-24 -99.5h354zM-7 0q-23 0 -23 18v39q0 24 23 24h150v636h77v-482q28 55 59.5 92.5t65 59.5t68.5 31.5t70 9.5q54 0 96 -20t71 -55t44.5 -82t15.5 -101q0 -48 28.5 -68.5
t88.5 -20.5h9q23 0 23 -18v-39q0 -24 -23 -24h-11q-46 0 -79.5 15.5t-49.5 61.5q-20 -38 -52.5 -57.5t-70.5 -19.5h-580z" />
    <glyph glyph-name="uniFEC6" unicode="&#x638;" horiz-adv-x="785" arabic-form="final" 
d="M530 81q36 0 46 19t10 61q0 84 -42.5 136t-118.5 52q-49 0 -93 -22.5t-77.5 -60t-54.5 -86t-24 -99.5h354zM792 81q23 0 23 -18v-39q0 -24 -23 -24h-11q-46 0 -79.5 15.5t-49.5 61.5q-20 -38 -52.5 -57.5t-70.5 -19.5h-529v81h99v636h77v-482q28 55 59.5 92.5t65 59.5
t68.5 31.5t70 9.5q54 0 96 -20t71 -55t44.5 -82t15.5 -101q0 -48 28.5 -68.5t88.5 -20.5h9zM384 571q0 19 13.5 32.5t32.5 13.5t32.5 -13.5t13.5 -32.5t-13.5 -32.5t-32.5 -13.5t-32.5 13.5t-13.5 32.5z" />
    <glyph glyph-name="uniFEC7" unicode="&#x638;" horiz-adv-x="786" arabic-form="initial" 
d="M-7 0q-23 0 -23 18v39q0 24 23 24h152v636h80v-480q28 55 59.5 92.5t65 59.5t68.5 31.5t70 9.5q56 0 98.5 -19.5t71.5 -53t43.5 -79.5t14.5 -99v-179h-723zM634 167q0 52 -12 87t-33 56t-50.5 30t-63.5 9q-41 0 -82.5 -19t-76.5 -54t-60 -84.5t-32 -110.5h410v86z
M430 571q0 19 13.5 32.5t32.5 13.5t32.5 -13.5t13.5 -32.5t-13.5 -32.5t-32.5 -13.5t-32.5 13.5t-13.5 32.5z" />
    <glyph glyph-name="uniFEC8" unicode="&#x638;" horiz-adv-x="829" arabic-form="medial" 
d="M574 81q36 0 46 19t10 61q0 84 -42.5 136t-118.5 52q-49 0 -93 -22.5t-77.5 -60t-54.5 -86t-24 -99.5h354zM-7 0q-23 0 -23 18v39q0 24 23 24h150v636h77v-482q28 55 59.5 92.5t65 59.5t68.5 31.5t70 9.5q54 0 96 -20t71 -55t44.5 -82t15.5 -101q0 -48 28.5 -68.5
t88.5 -20.5h9q23 0 23 -18v-39q0 -24 -23 -24h-11q-46 0 -79.5 15.5t-49.5 61.5q-20 -38 -52.5 -57.5t-70.5 -19.5h-580zM412 571q0 19 13.5 32.5t32.5 13.5t32.5 -13.5t13.5 -32.5t-13.5 -32.5t-32.5 -13.5t-32.5 13.5t-13.5 32.5z" />
    <glyph glyph-name="uniFECA" unicode="&#x639;" horiz-adv-x="495" arabic-form="final" 
d="M502 81q23 0 23 -18v-39q0 -24 -23 -24h-72q-60 0 -109 15.5t-77 32.5q-30 -15 -58.5 -32t-50.5 -38.5t-35.5 -49t-13.5 -64.5q0 -63 41.5 -101.5t126.5 -38.5q22 0 49 4t47 9q2 -20 6 -36t6 -33q-20 -8 -57 -14t-74 -6q-42 0 -83.5 12t-74 37.5t-53 65.5t-20.5 96
q0 49 16.5 86t42.5 65.5t57.5 49.5t62.5 37q-20 18 -41.5 40.5t-41 45.5t-34 46t-20.5 41l-5 73q25 19 55 34.5t61 26t61.5 16t56.5 5.5q45 0 80 -9t59 -23t36.5 -32.5t12.5 -36.5q0 -17 -5.5 -40.5t-21 -53t-43.5 -64.5t-72 -74q20 -5 46 -8t68 -3h71zM268 350
q-20 0 -43 -3.5t-45.5 -10t-42 -15.5t-32.5 -19q7 -15 22 -39t34.5 -49.5t42.5 -48.5t46 -37q25 14 49 36t43 46.5t30.5 48t11.5 40.5q0 13 -10.5 23t-27 16t-37 9t-41.5 3z" />
    <glyph glyph-name="uniFECB" unicode="&#x639;" horiz-adv-x="467" arabic-form="initial" 
d="M-7 0q-23 0 -23 18v39q0 24 23 24h161q-24 18 -39.5 38.5t-24.5 42t-13 42.5t-4 40q0 36 12 69t37 59t64.5 41.5t94.5 15.5q20 0 43.5 -2t50.5 -5q-2 -23 -4 -41t-5 -39q-20 3 -36 4.5t-36 1.5q-67 0 -103 -32t-36 -86q0 -36 15.5 -64t42 -46.5t60.5 -28.5t72 -10h72v-81
h-424z" />
    <glyph glyph-name="uniFECC" unicode="&#x639;" horiz-adv-x="529" arabic-form="medial" 
d="M290 350q-20 0 -43.5 -4t-46.5 -10.5t-43.5 -15.5t-33.5 -19q4 -13 19 -35.5t36 -47.5t46 -49t49 -40q28 16 52 38.5t42 46t28 46t10 39.5q0 13 -10.5 23t-27 16t-37 9t-40.5 3zM-7 0q-23 0 -23 18v39q0 24 23 24h93q32 0 60 6t52 16q-24 20 -46.5 43.5t-40.5 46
t-30.5 43t-17.5 34.5q-2 18 -3 36.5t-2 36.5q21 17 48 32t58 26t63.5 17.5t64.5 6.5q48 0 83 -9.5t58.5 -24t34.5 -32.5t11 -35q0 -21 -6 -46t-21.5 -53.5t-43 -61.5t-69.5 -70q20 -5 51 -8.5t70 -3.5h76q23 0 23 -18v-39q0 -24 -23 -24h-78q-72 0 -118.5 16.5t-72.5 32.5
q-43 -26 -89.5 -37.5t-91.5 -11.5h-93z" />
    <glyph glyph-name="uniFECE" unicode="&#x63a;" horiz-adv-x="495" arabic-form="final" 
d="M502 81q23 0 23 -18v-39q0 -24 -23 -24h-72q-60 0 -109 15.5t-77 32.5q-30 -15 -58.5 -32t-50.5 -38.5t-35.5 -49t-13.5 -64.5q0 -63 41.5 -101.5t126.5 -38.5q22 0 49 4t47 9q2 -20 6 -36t6 -33q-20 -8 -57 -14t-74 -6q-42 0 -83.5 12t-74 37.5t-53 65.5t-20.5 96
q0 49 16.5 86t42.5 65.5t57.5 49.5t62.5 37q-20 18 -41.5 40.5t-41 45.5t-34 46t-20.5 41l-5 73q25 19 55 34.5t61 26t61.5 16t56.5 5.5q45 0 80 -9t59 -23t36.5 -32.5t12.5 -36.5q0 -17 -5.5 -40.5t-21 -53t-43.5 -64.5t-72 -74q20 -5 46 -8t68 -3h71zM268 350
q-20 0 -43 -3.5t-45.5 -10t-42 -15.5t-32.5 -19q7 -15 22 -39t34.5 -49.5t42.5 -48.5t46 -37q25 14 49 36t43 46.5t30.5 48t11.5 40.5q0 13 -10.5 23t-27 16t-37 9t-41.5 3zM213 571q0 19 13.5 32.5t32.5 13.5t32.5 -13.5t13.5 -32.5t-13.5 -32.5t-32.5 -13.5t-32.5 13.5
t-13.5 32.5z" />
    <glyph glyph-name="uniFECF" unicode="&#x63a;" horiz-adv-x="467" arabic-form="initial" 
d="M-7 0q-23 0 -23 18v39q0 24 23 24h161q-24 18 -39.5 38.5t-24.5 42t-13 42.5t-4 40q0 36 12 69t37 59t64.5 41.5t94.5 15.5q20 0 43.5 -2t50.5 -5q-2 -23 -4 -41t-5 -39q-20 3 -36 4.5t-36 1.5q-67 0 -103 -32t-36 -86q0 -36 15.5 -64t42 -46.5t60.5 -28.5t72 -10h72v-81
h-424zM217 571q0 19 13.5 32.5t32.5 13.5t32.5 -13.5t13.5 -32.5t-13.5 -32.5t-32.5 -13.5t-32.5 13.5t-13.5 32.5z" />
    <glyph glyph-name="uniFED0" unicode="&#x63a;" horiz-adv-x="529" arabic-form="medial" 
d="M290 350q-20 0 -43.5 -4t-46.5 -10.5t-43.5 -15.5t-33.5 -19q4 -13 19 -35.5t36 -47.5t46 -49t49 -40q28 16 52 38.5t42 46t28 46t10 39.5q0 13 -10.5 23t-27 16t-37 9t-40.5 3zM-7 0q-23 0 -23 18v39q0 24 23 24h93q32 0 60 6t52 16q-24 20 -46.5 43.5t-40.5 46
t-30.5 43t-17.5 34.5q-2 18 -3 36.5t-2 36.5q21 17 48 32t58 26t63.5 17.5t64.5 6.5q48 0 83 -9.5t58.5 -24t34.5 -32.5t11 -35q0 -21 -6 -46t-21.5 -53.5t-43 -61.5t-69.5 -70q20 -5 51 -8.5t70 -3.5h76q23 0 23 -18v-39q0 -24 -23 -24h-78q-72 0 -118.5 16.5t-72.5 32.5
q-43 -26 -89.5 -37.5t-91.5 -11.5h-93zM227 571q0 19 13.5 32.5t32.5 13.5t32.5 -13.5t13.5 -32.5t-13.5 -32.5t-32.5 -13.5t-32.5 13.5t-13.5 32.5z" />
    <glyph glyph-name="uniFED2" unicode="&#x641;" horiz-adv-x="946" arabic-form="final" 
d="M959 81q23 0 23 -18v-39q0 -24 -23 -24h-826q-27 0 -51 8t-42.5 25t-29 43.5t-10.5 63.5v162h81v-141q0 -25 4.5 -40.5t12.5 -24.5t19 -12t24 -3h386q-22 22 -36.5 54.5t-14.5 74.5q0 39 15.5 77t43.5 67t67.5 47t87.5 18q41 0 73.5 -13.5t55.5 -38t35 -58.5t12 -76v-152
h93zM786 81v157q0 18 -6 36.5t-19 33.5t-33.5 24.5t-48.5 9.5q-25 0 -47.5 -9t-39.5 -26.5t-27 -41.5t-10 -54q0 -46 18 -72t40 -39q24 -14 59 -19h114zM636 571q0 19 13.5 32.5t32.5 13.5t32.5 -13.5t13.5 -32.5t-13.5 -32.5t-32.5 -13.5t-32.5 13.5t-13.5 32.5z" />
    <glyph glyph-name="uniFED3" unicode="&#x641;" horiz-adv-x="572" arabic-form="initial" 
d="M-7 0q-23 0 -23 18v39q0 24 23 24h167q-22 20 -36.5 53.5t-14.5 75.5q0 39 15.5 77t44 67t68 47t87.5 18q40 0 72.5 -13.5t55.5 -38t35 -58.5t12 -76v-233h-506zM419 81v157q0 18 -6 36.5t-19 33.5t-33.5 24.5t-48.5 9.5q-24 0 -46.5 -9t-39.5 -26.5t-27.5 -41.5
t-10.5 -54q0 -46 18 -72t41 -39q24 -14 59 -19h113zM279 571q0 19 13.5 32.5t32.5 13.5t32.5 -13.5t13.5 -32.5t-13.5 -32.5t-32.5 -13.5t-32.5 13.5t-13.5 32.5z" />
    <glyph glyph-name="uniFED4" unicode="&#x641;" horiz-adv-x="597" arabic-form="medial" 
d="M-7 0q-23 0 -23 18v39q0 24 23 24h164q-21 20 -36 53.5t-15 75.5q0 39 15.5 77t43.5 67t68 47t88 18q40 0 72.5 -13.5t55 -38t34.5 -58.5t12 -76v-152h89q23 0 23 -18v-39q0 -24 -23 -24h-591zM415 81v157q0 18 -6 36.5t-19 33.5t-33.5 24.5t-48.5 9.5q-24 0 -46 -9
t-39.5 -26.5t-27.5 -41.5t-10 -54q0 -46 18 -72t40 -39q24 -14 59 -19h113zM269 571q0 19 13.5 32.5t32.5 13.5t32.5 -13.5t13.5 -32.5t-13.5 -32.5t-32.5 -13.5t-32.5 13.5t-13.5 32.5z" />
    <glyph glyph-name="uniFED6" unicode="&#x642;" horiz-adv-x="722" arabic-form="final" 
d="M561 81v157q0 43 -28.5 73.5t-79.5 30.5q-22 0 -44 -9t-40 -25.5t-29 -41t-11 -55.5q0 -34 12.5 -58.5t34 -40.5t49.5 -23.5t60 -7.5h76zM641 0q-2 -58 -22 -113t-59.5 -97.5t-99 -68.5t-141.5 -26q-86 0 -146.5 22.5t-98.5 58t-55.5 79.5t-17.5 87q0 36 5.5 67.5
t14 56.5t17 43.5t14.5 27.5q17 -8 32.5 -16t30.5 -16q-11 -23 -18 -45q-7 -20 -12 -43t-5 -45q0 -41 14 -76.5t44 -61.5t76.5 -41.5t112.5 -15.5t110.5 19.5t72 51t40.5 71.5t15 81h-69q-69 0 -116 17.5t-76 47t-41.5 67t-12.5 78.5q0 43 16.5 81t46 66.5t68.5 45t84 16.5
q41 0 74 -14t55.5 -38.5t34.5 -59t12 -74.5v-152h90q23 0 23 -18v-39q0 -24 -23 -24h-90zM346 571q0 19 13.5 32.5t32.5 13.5t32.5 -13.5t13.5 -32.5t-13.5 -32.5t-32.5 -13.5t-32.5 13.5t-13.5 32.5zM479 571q0 19 13.5 32.5t32.5 13.5t32.5 -13.5t13.5 -32.5t-13.5 -32.5
t-32.5 -13.5t-32.5 13.5t-13.5 32.5z" />
    <glyph glyph-name="uniFED7" unicode="&#x642;" horiz-adv-x="572" arabic-form="initial" 
d="M-7 0q-23 0 -23 18v39q0 24 23 24h167q-22 20 -36.5 53.5t-14.5 75.5q0 39 15.5 77t44 67t68 47t87.5 18q40 0 72.5 -13.5t55.5 -38t35 -58.5t12 -76v-233h-506zM419 81v157q0 18 -6 36.5t-19 33.5t-33.5 24.5t-48.5 9.5q-24 0 -46.5 -9t-39.5 -26.5t-27.5 -41.5
t-10.5 -54q0 -46 18 -72t41 -39q24 -14 59 -19h113zM201 571q0 19 13.5 32.5t32.5 13.5t32.5 -13.5t13.5 -32.5t-13.5 -32.5t-32.5 -13.5t-32.5 13.5t-13.5 32.5zM334 571q0 19 13.5 32.5t32.5 13.5t32.5 -13.5t13.5 -32.5t-13.5 -32.5t-32.5 -13.5t-32.5 13.5t-13.5 32.5z
" />
    <glyph glyph-name="uniFED8" unicode="&#x642;" horiz-adv-x="597" arabic-form="medial" 
d="M-7 0q-23 0 -23 18v39q0 24 23 24h164q-21 20 -36 53.5t-15 75.5q0 39 15.5 77t43.5 67t68 47t88 18q40 0 72.5 -13.5t55 -38t34.5 -58.5t12 -76v-152h89q23 0 23 -18v-39q0 -24 -23 -24h-591zM415 81v157q0 18 -6 36.5t-19 33.5t-33.5 24.5t-48.5 9.5q-24 0 -46 -9
t-39.5 -26.5t-27.5 -41.5t-10 -54q0 -46 18 -72t40 -39q24 -14 59 -19h113zM203 571q0 19 13.5 32.5t32.5 13.5t32.5 -13.5t13.5 -32.5t-13.5 -32.5t-32.5 -13.5t-32.5 13.5t-13.5 32.5zM336 571q0 19 13.5 32.5t32.5 13.5t32.5 -13.5t13.5 -32.5t-13.5 -32.5t-32.5 -13.5
t-32.5 13.5t-13.5 32.5z" />
    <glyph glyph-name="uniFEDA" unicode="&#x643;" horiz-adv-x="881" arabic-form="final" 
d="M888 81q23 0 23 -18v-39q0 -24 -23 -24h-27q-45 0 -75.5 16.5t-44.5 61.5q-11 -26 -25 -41.5t-30.5 -23.5t-34 -10.5t-35.5 -2.5h-488q-35 0 -59.5 11t-39.5 29.5t-22 43t-7 51.5v158h79v-137q0 -26 4.5 -40.5t12.5 -22.5t18.5 -10t21.5 -2h476q38 0 49 20t11 56v560h79
v-518q0 -25 5.5 -46.5t18.5 -37.5t34.5 -25t53.5 -9h25zM455 480q-5 2 -13.5 2.5t-15.5 0.5q-25 0 -41.5 -10t-16.5 -33t20 -42.5t62 -19.5h20v-40h-168v40h60q-19 17 -26 35.5t-7 32.5q0 31 23.5 54t68.5 23q10 0 20 -0.5t19 -2.5z" />
    <glyph glyph-name="uniFEDB" unicode="&#x643;" horiz-adv-x="473" arabic-form="initial" 
d="M-7 0q-23 0 -23 18v39q0 24 23 24h331v122q0 45 -11.5 71t-31.5 38.5t-46 16t-56 3.5h-108v80q49 78 94.5 152t96.5 152q20 -13 33 -22.5t31 -21.5l-171 -264h49q38 0 74 -8.5t63.5 -30t44.5 -59.5t17 -98v-212h-410z" />
    <glyph glyph-name="uniFEDC" unicode="&#x643;" horiz-adv-x="533" arabic-form="medial" 
d="M-7 0q-23 0 -23 18v39q0 24 23 24h268q39 0 50.5 19.5t11.5 54.5q0 51 -4 85.5t-19 54.5t-43.5 28.5t-77.5 8.5h-112v80q49 78 94.5 152t96.5 152q20 -13 33 -22.5t31 -21.5l-171 -264h52q43 0 79.5 -10t62.5 -33t41 -60.5t15 -92.5q1 -75 30 -103t86 -28h23q23 0 23 -18
v-39q0 -24 -23 -24h-26q-45 0 -77 16.5t-46 61.5q-10 -25 -23 -40.5t-28 -23.5t-33 -11t-38 -3h-276z" />
    <glyph glyph-name="uniFEDE" unicode="&#x644;" horiz-adv-x="691" arabic-form="final" 
d="M698 81q23 0 23 -18v-39q0 -24 -23 -24h-18q-18 0 -35 1.5t-32.5 7.5t-28.5 18t-23 32q0 -67 -21 -119.5t-58.5 -88.5t-89.5 -55t-114 -19q-81 0 -134.5 23t-85.5 60t-45 82t-13 89q0 45 12.5 90.5t39.5 83.5q18 -11 33.5 -19t33.5 -19q-19 -32 -28 -67t-9 -69
q0 -26 9 -56t31.5 -56t61.5 -43.5t99 -17.5q39 0 75 11t64 34t45 59t17 86v669h77v-518q0 -65 30.5 -91.5t85.5 -26.5h21z" />
    <glyph glyph-name="uniFEDF" unicode="&#x644;" horiz-adv-x="281" arabic-form="initial" 
d="M-7 0q-23 0 -23 18v39q0 24 23 24h129v636h79v-717h-208z" />
    <glyph glyph-name="uniFEE0" unicode="&#x644;" horiz-adv-x="348" arabic-form="medial" 
d="M-7 0q-23 0 -23 18v39q0 24 23 24h86q36 0 48.5 20.5t12.5 55.5v560h79v-518q0 -25 5.5 -46.5t19 -37.5t35.5 -25t54 -9h22q23 0 23 -18v-39q0 -24 -23 -24h-25q-45 0 -77 18t-44 60q-11 -25 -24 -40.5t-28.5 -23.5t-33.5 -11t-38 -3h-92z" />
    <glyph glyph-name="uniFEE2" unicode="&#x645;" horiz-adv-x="755" arabic-form="final" 
d="M425 352q-26 0 -49 -8t-40 -26.5t-27 -48t-10 -72.5v-114h120q36 0 60.5 5.5t38.5 20t20 40t6 64.5q0 66 -31 102.5t-88 36.5zM762 81q23 0 23 -18v-39q0 -24 -23 -24h-26q-20 0 -40.5 3.5t-38.5 13t-32.5 26.5t-22.5 44q-18 -29 -39.5 -46t-46.5 -26t-54 -12t-62 -3
h-232q-46 0 -67.5 -24.5t-21.5 -89.5v-240h-79v270q0 82 44.5 124.5t114.5 42.5h59v125q0 42 13.5 82t40 71t64.5 50t86 19q47 0 84.5 -16t64 -44.5t40.5 -68t14 -85.5v-29q0 -10 2.5 -28t14 -35t34 -30t62.5 -13h24z" />
    <glyph glyph-name="uniFEE3" unicode="&#x645;" horiz-adv-x="553" arabic-form="initial" 
d="M302 75q30 0 52.5 10t37 27t21.5 39.5t7 48.5q0 33 -10 59t-26.5 44.5t-38 28.5t-43.5 10q-24 0 -46 -10t-38.5 -28.5t-26 -44.5t-9.5 -59q0 -26 7 -48.5t21.5 -39.5t37 -27t54.5 -10zM-7 0q-23 0 -23 18v39q0 24 23 24h26q86 0 86 120q0 47 15 86.5t41.5 68t63 44.5
t79.5 16q48 0 83.5 -16.5t59 -45.5t35 -69.5t11.5 -89.5q0 -37 -10 -72.5t-32.5 -63.5t-58.5 -45t-88 -17q-20 0 -42.5 3t-45 12t-43.5 26t-39 46q-18 -45 -47 -64.5t-72 -19.5h-22z" />
    <glyph glyph-name="uniFEE4" unicode="&#x645;" horiz-adv-x="624" arabic-form="medial" 
d="M301 75q31 0 53.5 10t37 27t21.5 39.5t7 48.5q0 33 -10 59t-26.5 44.5t-38 28.5t-44.5 10q-24 0 -46 -10t-38.5 -28.5t-26 -44.5t-9.5 -59q0 -26 7 -48.5t22 -39.5t37.5 -27t53.5 -10zM-7 0q-23 0 -23 18v39q0 24 23 24h26q16 0 31 5t27 18t19.5 36.5t7.5 60.5
q0 46 15 85.5t41 68.5t62.5 45t79.5 16q91 0 141 -60t50 -169q0 -12 3.5 -30.5t15 -35t34 -28.5t61.5 -12h24q23 0 23 -18v-39q0 -24 -23 -24h-27q-21 0 -42 4t-39.5 14.5t-32.5 28t-21 44.5q-20 -32 -40.5 -51t-42 -29t-44 -13t-46.5 -3q-57 0 -96 21.5t-67 67.5
q-14 -42 -44.5 -63t-62.5 -21h-33z" />
    <glyph glyph-name="uniFEE6" unicode="&#x646;" horiz-adv-x="679" arabic-form="final" 
d="M686 81q23 0 23 -18v-39q0 -24 -23 -24h-25q-29 0 -55.5 8t-41.5 34q-7 -73 -34 -123.5t-67 -82t-88 -45.5t-97 -14q-81 0 -134.5 23t-85.5 60t-45 82t-13 89q0 45 14 91t39 83l66 -38q-19 -32 -28 -67.5t-9 -68.5q0 -29 9.5 -59.5t33 -56t62 -41.5t96.5 -16q50 0 88 15
t63 40.5t37.5 59t12.5 69.5q0 45 -14.5 96.5t-40.5 96.5q22 12 38.5 22t36.5 21q16 -34 27 -65t18 -57q6 -23 14 -37.5t20.5 -22.5t31 -11.5t46.5 -3.5h25zM256 471q0 19 13.5 32.5t32.5 13.5t32.5 -13.5t13.5 -32.5t-13.5 -32.5t-32.5 -13.5t-32.5 13.5t-13.5 32.5z" />
    <glyph glyph-name="uniFEE7" unicode="&#x646;" horiz-adv-x="303" arabic-form="initial" 
d="M-7 0q-23 0 -23 18v39q0 24 23 24h150v299h80v-380h-230zM135 571q0 19 13.5 32.5t32.5 13.5t32.5 -13.5t13.5 -32.5t-13.5 -32.5t-32.5 -13.5t-32.5 13.5t-13.5 32.5z" />
    <glyph glyph-name="uniFEE8" unicode="&#x646;" horiz-adv-x="348" arabic-form="medial" 
d="M-7 0q-23 0 -23 18v39q0 24 23 24h86q36 0 48.5 20.5t12.5 55.5v223h79v-181q0 -25 5.5 -46.5t19 -37.5t35.5 -25t54 -9h22q23 0 23 -18v-39q0 -24 -23 -24h-25q-45 0 -77 18t-44 60q-11 -25 -24 -40.5t-28.5 -23.5t-33.5 -11t-38 -3h-92zM134 571q0 19 13.5 32.5
t32.5 13.5t32.5 -13.5t13.5 -32.5t-13.5 -32.5t-32.5 -13.5t-32.5 13.5t-13.5 32.5z" />
    <glyph glyph-name="uniFEE9" unicode="&#x647;" horiz-adv-x="457" arabic-form="isolated" 
d="M387 0h-171q-59 0 -100.5 17t-67 44t-37 61.5t-11.5 69.5q0 46 15 87.5t42 72.5t64.5 49t82.5 18q42 0 76 -14t57.5 -39t36.5 -60.5t13 -77.5v-228zM308 81v115q0 69 -29 107.5t-83 38.5q-22 0 -43 -9t-37.5 -26.5t-27 -41.5t-10.5 -54q0 -35 11 -60t30 -40.5t43 -22.5
t51 -7h95z" />
    <glyph glyph-name="uniFEEA" unicode="&#x647;" horiz-adv-x="461" arabic-form="final" 
d="M308 81v115q0 69 -28.5 107.5t-82.5 38.5q-23 0 -44 -9t-38 -26.5t-27 -41.5t-10 -54q0 -35 11 -60t30 -40.5t43 -22.5t51 -7h95zM468 81q23 0 23 -18v-39q0 -24 -23 -24h-252q-59 0 -100.5 17t-67 44t-37 61.5t-11.5 69.5q0 46 15.5 87.5t42.5 72.5t64.5 49t81.5 18
q42 0 76 -14t57.5 -39t36.5 -60.5t13 -77.5v-147h81z" />
    <glyph glyph-name="uniFEEB" unicode="&#x647;" horiz-adv-x="739" arabic-form="initial" 
d="M357 341q-76 -10 -122 -70.5t-46 -166.5v-23h168v260zM424 81h166v51q0 49 -12.5 85.5t-35 62t-52.5 41t-66 21.5v-261zM-7 0q-23 0 -23 18v39q0 24 23 24h123q0 69 17.5 127t49 101t76 70t98.5 34v62h67v-62q63 -7 109.5 -31t76.5 -62t44.5 -88t14.5 -109v-123h-676z
" />
    <glyph glyph-name="uniFEEC" unicode="&#x647;" horiz-adv-x="547" arabic-form="medial" 
d="M173 81h116q18 0 35 12t30 33t21 48.5t8 58.5q0 51 -26.5 81t-69.5 30q-17 0 -37 -8t-37 -29.5t-28.5 -60.5t-11.5 -101v-64zM305 -266q22 0 41 8t32 22t20.5 32.5t7.5 38.5q0 18 -8 40.5t-22.5 45t-33 43.5t-39.5 36h-126v-109q0 -44 12 -74t30.5 -48.5t41.5 -26.5
t44 -8zM-7 0q-23 0 -23 18v39q0 24 23 24h112v80q0 63 15.5 111t42 81t61.5 50t74 17q70 0 112.5 -44.5t42.5 -125.5q0 -24 -5.5 -48t-15 -46.5t-21 -41.5t-23.5 -33h166q23 0 23 -18v-39q0 -24 -23 -24h-153q40 -42 56.5 -83t16.5 -73q0 -39 -12 -72.5t-34.5 -58t-54 -38.5
t-70.5 -14q-53 0 -90 19t-60 49.5t-34 70t-11 81.5v119h-115z" />
    <glyph glyph-name="uniFEEE" unicode="&#x648;" horiz-adv-x="552" arabic-form="final" 
d="M371 81v115q0 69 -30 107.5t-81 38.5q-23 0 -45 -9t-38.5 -26.5t-26.5 -41.5t-10 -54q0 -35 11 -60t30 -40.5t43 -22.5t51 -7h96zM559 81q23 0 23 -18v-39q0 -24 -23 -24h-110q-1 -62 -20 -106t-52.5 -72t-79.5 -40.5t-101 -12.5q-21 0 -43 1t-45 5q2 21 3.5 39t3.5 37
q23 -2 45 -3.5t42 -1.5q34 0 64.5 6t53.5 23t37 47t15 78h-93q-59 0 -100.5 17t-67 44t-37 61.5t-11.5 69.5q0 46 15 87.5t42 72.5t64.5 49t81.5 18q43 0 77 -14t57.5 -39t36 -60.5t12.5 -77.5v-147h110z" />
    <glyph glyph-name="uniFEF0" unicode="&#x649;" horiz-adv-x="957" arabic-form="final" 
d="M964 81q23 0 23 -18v-39q0 -24 -23 -24h-152v172q0 42 -10 68t-28.5 40t-45.5 18.5t-61 4.5h-21v-245q0 -59 -20 -110.5t-62 -90t-107 -61t-154 -22.5q-81 0 -138 23.5t-94 60.5t-54 83t-17 91q0 51 15.5 93.5t40.5 80.5l64 -39q-19 -32 -28.5 -65.5t-9.5 -62.5
q0 -39 15 -72t44.5 -57t73 -37.5t99.5 -13.5q55 0 101.5 11.5t80.5 33.5t52.5 55t18.5 75v346h126q103 0 150.5 -48.5t47.5 -147.5v-103h73z" />
    <glyph glyph-name="uniFEF2" unicode="&#x64a;" horiz-adv-x="957" arabic-form="final" 
d="M964 81q23 0 23 -18v-39q0 -24 -23 -24h-152v172q0 42 -10 68t-28.5 40t-45.5 18.5t-61 4.5h-21v-245q0 -59 -20 -110.5t-62 -90t-107 -61t-154 -22.5q-81 0 -138 23.5t-94 60.5t-54 83t-17 91q0 51 15.5 93.5t40.5 80.5l64 -39q-19 -32 -28.5 -65.5t-9.5 -62.5
q0 -39 15 -72t44.5 -57t73 -37.5t99.5 -13.5q55 0 101.5 11.5t80.5 33.5t52.5 55t18.5 75v346h126q103 0 150.5 -48.5t47.5 -147.5v-103h73zM204 -351q0 19 13.5 32.5t32.5 13.5t32.5 -13.5t13.5 -32.5t-13.5 -32.5t-32.5 -13.5t-32.5 13.5t-13.5 32.5zM337 -351
q0 19 13.5 32.5t32.5 13.5t32.5 -13.5t13.5 -32.5t-13.5 -32.5t-32.5 -13.5t-32.5 13.5t-13.5 32.5z" />
    <glyph glyph-name="uniFEF3" unicode="&#x64a;" horiz-adv-x="303" arabic-form="initial" 
d="M-7 0q-23 0 -23 18v39q0 24 23 24h150v299h80v-380h-230zM24 -161q0 19 13.5 32.5t32.5 13.5t32.5 -13.5t13.5 -32.5t-13.5 -32.5t-32.5 -13.5t-32.5 13.5t-13.5 32.5zM157 -161q0 19 13.5 32.5t32.5 13.5t32.5 -13.5t13.5 -32.5t-13.5 -32.5t-32.5 -13.5t-32.5 13.5
t-13.5 32.5z" />
    <glyph glyph-name="uniFEF4" unicode="&#x64a;" horiz-adv-x="348" arabic-form="medial" 
d="M-7 0q-23 0 -23 18v39q0 24 23 24h86q36 0 48.5 20.5t12.5 55.5v223h79v-181q0 -25 5.5 -46.5t19 -37.5t35.5 -25t54 -9h22q23 0 23 -18v-39q0 -24 -23 -24h-25q-45 0 -77 18t-44 60q-11 -25 -24 -40.5t-28.5 -23.5t-33.5 -11t-38 -3h-92zM70 -161q0 19 13.5 32.5
t32.5 13.5t32.5 -13.5t13.5 -32.5t-13.5 -32.5t-32.5 -13.5t-32.5 13.5t-13.5 32.5zM203 -161q0 19 13.5 32.5t32.5 13.5t32.5 -13.5t13.5 -32.5t-13.5 -32.5t-32.5 -13.5t-32.5 13.5t-13.5 32.5z" />
    <glyph glyph-name=".notdef" horiz-adv-x="505" 
d="M219 115v66h55v-66h-55zM222 231l-2 16q0 28 3.5 48t8.5 32q13 25 47 59q15 15 25 26.5t14 19.5q9 18 9 35q0 35 -22 60q-21 24 -53 24q-30 0 -52.5 -21t-28.5 -72l-48 7q6 70 43 103t89 33q27 0 48.5 -9.5t38.5 -26.5q36 -36 36 -94q0 -31 -13 -58q-10 -22 -49 -60
q-35 -32 -43 -51q-6 -18 -6 -71h-45zM456 49v608h-407v-608h407zM505 708v-708h-505v708h505z" />
    <glyph glyph-name=".null" horiz-adv-x="499" 
 />
    <glyph glyph-name=".null" horiz-adv-x="499" 
 />
    <glyph glyph-name="nonmarkingreturn" unicode="&#xd;" horiz-adv-x="194" 
 />
    <glyph glyph-name="space" unicode=" " horiz-adv-x="260" 
 />
    <glyph glyph-name="space" unicode="&#xa0;" horiz-adv-x="260" 
 />
    <glyph glyph-name="exclam" unicode="!" horiz-adv-x="278" 
d="M181 198h-84v510h84v-510zM139 114q25 0 42.5 -17.5t17.5 -42.5t-18.5 -42.5t-41.5 -17.5t-41.5 17.5t-18.5 42.5t17.5 42.5t42.5 17.5z" />
    <glyph glyph-name="quotedbl" unicode="&#x22;" horiz-adv-x="519" 
d="M150 708h72v-240h-72v240zM297 708h72v-240h-72v240z" />
    <glyph glyph-name="numbersign" unicode="#" 
d="M128 213h-98v66h108l20 152h-98v66h108l30 211h67l-30 -211h126l30 211h67l-30 -211h98v-66h-107l-21 -152h98v-66h-108l-30 -213h-67l30 213h-126l-30 -213h-67zM352 431h-126l-21 -152h126z" />
    <glyph glyph-name="dollar" unicode="$" 
d="M256 -12q-63 0 -119.5 21t-94.5 72l70 61q22 -34 61.5 -54t82.5 -22v254q-39 10 -75 26.5t-63.5 40.5t-43.5 57.5t-16 78.5q0 42 16 77t43.5 60.5t63.5 41t75 18.5v66h48v-66q54 0 106.5 -19.5t87.5 -61.5l-66 -60q-23 30 -56 46.5t-72 16.5v-249q40 -13 78 -28
t67.5 -37.5t47 -55.5t17.5 -82q0 -45 -17 -81t-45.5 -62t-66.5 -41t-81 -18v-71h-48v71zM256 642q-49 -9 -78.5 -40.5t-29.5 -79.5q0 -26 8.5 -44t23 -31t34 -22.5t42.5 -18.5v236zM304 66q51 6 85.5 39t34.5 81q0 27 -10 47t-27 34t-38.5 23.5t-44.5 16.5v-241z" />
    <glyph glyph-name="percent" unicode="%" horiz-adv-x="833" 
d="M38 545q0 37 13.5 69t37 55.5t55.5 37t69 13.5t69 -13.5t55.5 -37t37 -55.5t13.5 -69t-13.5 -69t-37 -55.5t-55.5 -37t-69 -13.5t-69 13.5t-55.5 37t-37 55.5t-13.5 69zM110 545q0 -21 8.5 -39.5t22.5 -33t32.5 -22.5t39.5 -8t39.5 8t32.5 22.5t22.5 33t8.5 39.5
t-8.5 39.5t-22.5 33t-32.5 22.5t-39.5 8t-39.5 -8t-32.5 -22.5t-22.5 -33t-8.5 -39.5zM445 163q0 37 13.5 69t37 55.5t55.5 37t69 13.5t69 -13.5t55.5 -37t37 -55.5t13.5 -69t-13.5 -69t-37 -55.5t-55.5 -37t-69 -13.5t-69 13.5t-55.5 37t-37 55.5t-13.5 69zM517 163
q0 -21 8.5 -39.5t22.5 -33t32.5 -22.5t39.5 -8t39.5 8t32.5 22.5t22.5 33t8.5 39.5t-8.5 39.5t-22.5 33t-32.5 22.5t-39.5 8t-39.5 -8t-32.5 -22.5t-22.5 -33t-8.5 -39.5zM614 740l55 -32l-444 -740l-55 32z" />
    <glyph glyph-name="ampersand" unicode="&#x26;" horiz-adv-x="722" 
d="M497 102q-43 -54 -92 -84t-120 -30q-45 0 -86 13.5t-71.5 39.5t-49 63.5t-18.5 85.5q0 37 12.5 68.5t34 56.5t50 45t60.5 35q-35 35 -60 74t-25 90q0 39 15 69.5t40 51t58 31t70 10.5q36 0 68 -10t56.5 -29.5t38.5 -49t14 -68.5q0 -33 -13.5 -60.5t-35 -49t-48 -39
t-53.5 -31.5l150 -159l95 159h95l-136 -218l162 -166h-115zM290 435q20 11 41 23t38 27t28 35t11 46q0 39 -26.5 61t-63.5 22q-42 0 -72 -25t-30 -70q0 -29 15.5 -51.5t33.5 -41.5zM269 344q-23 -12 -45 -26.5t-40 -32.5t-29 -41t-11 -51q0 -29 11 -53t30 -42t44 -28t53 -10
q27 0 50 8t42.5 21.5t37 31t34.5 37.5z" />
    <glyph glyph-name="quotesingle" unicode="'" horiz-adv-x="278" 
d="M103 708h72v-240h-72v240z" />
    <glyph glyph-name="parenleft" unicode="(" horiz-adv-x="278" 
d="M201 -156q-72 100 -109 214.5t-37 229.5q0 125 38.5 237.5t107.5 206.5l54 -40q-64 -88 -96 -190.5t-32 -213.5q0 -60 8 -112t24 -100.5t40 -95.5t56 -98z" />
    <glyph glyph-name="parenright" unicode=")" horiz-adv-x="278" 
d="M77 732q72 -100 109 -214.5t37 -229.5q0 -125 -38.5 -237.5t-107.5 -206.5l-54 40q64 88 96 190.5t32 213.5q0 60 -8 112t-24 100.5t-40 95.5t-56 98z" />
    <glyph glyph-name="asterisk" unicode="*" horiz-adv-x="444" 
d="M252 559l142 48l19 -58l-141 -48l89 -119l-49 -38l-90 123l-87 -123l-50 38l87 119l-141 48l19 58l142 -48v149h60v-149z" />
    <glyph glyph-name="plus" unicode="+" horiz-adv-x="666" 
d="M72 336h228v228h66v-228h228v-66h-228v-228h-66v228h-228v66z" />
    <glyph glyph-name="comma" unicode="," horiz-adv-x="278" 
d="M129 -138h-77l68 240h91z" />
    <glyph glyph-name="hyphen" unicode="-" horiz-adv-x="333" 
d="M44 276h245v-72h-245v72z" />
    <glyph glyph-name="hyphen" unicode="&#x2010;" horiz-adv-x="333" 
d="M44 276h245v-72h-245v72z" />
    <glyph glyph-name="hyphen" unicode="&#xad;" horiz-adv-x="333" 
d="M44 276h245v-72h-245v72z" />
    <glyph glyph-name="period" unicode="." horiz-adv-x="278" 
d="M139 114q25 0 42.5 -17.5t17.5 -42.5t-18.5 -42.5t-41.5 -17.5t-41.5 17.5t-18.5 42.5t17.5 42.5t42.5 17.5z" />
    <glyph glyph-name="slash" unicode="/" horiz-adv-x="370" 
d="M66 -43l-63 25l301 768l63 -24z" />
    <glyph glyph-name="zero" unicode="0" 
d="M38 354q0 60 10 125t37 118.5t73.5 88t119.5 34.5t119.5 -34.5t73.5 -88t37 -118.5t10 -125t-10 -125t-37 -118.5t-73.5 -88t-119.5 -34.5t-119.5 34.5t-73.5 88t-37 118.5t-10 125zM122 354q0 -26 2 -58t7.5 -64.5t16 -63.5t28 -55t42.5 -38.5t60 -14.5t60 14.5
t42.5 38.5t28 55t16 63.5t7.5 64.5t2 58t-2 58t-7.5 64.5t-16 63.5t-28 55t-42.5 38.5t-60 14.5t-60 -14.5t-42.5 -38.5t-28 -55t-16 -63.5t-7.5 -64.5t-2 -58z" />
    <glyph glyph-name="one" unicode="1" 
d="M360 0h-84v600h-2l-127 -107l-50 61l190 154h73v-708z" />
    <glyph glyph-name="two" unicode="2" 
d="M50 96l267 260q25 24 44 44.5t31.5 40t18.5 40.5t6 47q0 28 -10 50t-27.5 37.5t-41 24t-50.5 8.5q-54 0 -89 -31t-45 -82l-91 8q7 43 26.5 76.5t49 55.5t66.5 33.5t80 11.5t82.5 -12.5t69 -36.5t47 -60t17.5 -83q0 -42 -11.5 -76t-31 -63t-44 -54t-51.5 -50l-218 -205v-2
h361v-78h-456v96z" />
    <glyph glyph-name="three" unicode="3" 
d="M204 408h26q26 0 54.5 4t52 17t39 37t15.5 65q0 54 -33.5 85.5t-87.5 31.5q-92 0 -130 -79l-81 31q26 60 81 90t124 30q42 0 80.5 -12t67.5 -35t46 -57.5t17 -80.5q0 -56 -33.5 -100.5t-87.5 -61.5v-2q68 -12 106.5 -61.5t38.5 -116.5q0 -51 -19 -89t-51 -64t-74.5 -39
t-89.5 -13q-81 0 -141 35t-87 114l85 28q18 -57 50.5 -81t92.5 -24q30 0 56 10t45.5 28.5t31 44t11.5 56.5q0 39 -15.5 65.5t-41 42t-57.5 22.5t-65 7h-26v72z" />
    <glyph glyph-name="four" unicode="4" 
d="M419 240h102v-78h-102v-162h-84v162h-300v93l281 453h103v-468zM335 610h-2l-226 -370h228v370z" />
    <glyph glyph-name="five" unicode="5" 
d="M474 630h-289l-3 -191q20 10 44.5 13.5t46.5 3.5q51 0 92.5 -17.5t71.5 -49t46 -74t16 -92.5q0 -53 -18.5 -96.5t-51 -74t-77 -47.5t-96.5 -17q-81 0 -130.5 34.5t-78.5 94.5l84 32q18 -40 52.5 -64.5t79.5 -24.5q31 0 59 11.5t48.5 33t32.5 51.5t12 67q0 39 -13.5 69
t-37 50.5t-55.5 31t-69 10.5q-36 0 -74 -12.5t-70 -31.5l7 368h371v-78z" />
    <glyph glyph-name="six" unicode="6" 
d="M204 413l2 -2q20 11 46.5 16t48.5 5q46 0 85.5 -16t68 -45.5t44.5 -70.5t16 -90q0 -52 -18 -93t-50 -69.5t-75.5 -44t-93.5 -15.5t-93.5 15.5t-75.5 44t-50 69.5t-18 93q0 61 19 107t48 92l188 299h98zM278 360q-32 0 -60 -10.5t-48.5 -30t-32.5 -47.5t-12 -62
q0 -35 12 -62.5t32.5 -47t48.5 -30t60 -10.5t60 10.5t48.5 30t32.5 47t12 62.5q0 34 -12 62t-32.5 47.5t-48.5 30t-60 10.5z" />
    <glyph glyph-name="seven" unicode="7" 
d="M480 630l-283 -630h-95l288 630h-342v78h432v-78z" />
    <glyph glyph-name="eight" unicode="8" 
d="M76 535q0 42 15.5 76t42.5 58t64 37.5t80 13.5t80 -13.5t64 -37.5t42.5 -58t15.5 -76q0 -25 -8 -50t-23 -46t-36.5 -37t-48.5 -23v-2q32 -7 58 -23.5t44 -40.5t28 -54t10 -64q0 -48 -17.5 -86.5t-48 -65.5t-72 -41t-88.5 -14t-88.5 14t-72 41t-48 65.5t-17.5 86.5
q0 34 10 64t28 54t44 40.5t58 23.5v2q-27 7 -48.5 23t-36.5 37t-23 46t-8 50zM160 531q0 -51 32 -84t86 -33t86 33t32 84t-32 84t-86 33t-86 -33t-32 -84zM136 201q0 -31 11 -57t30.5 -44.5t45 -29t55.5 -10.5t55.5 10.5t45 29t30.5 44.5t11 57t-11 57t-30.5 44.5t-45 29
t-55.5 10.5t-55.5 -10.5t-45 -29t-30.5 -44.5t-11 -57z" />
    <glyph glyph-name="nine" unicode="9" 
d="M352 295l-2 2q-20 -11 -46.5 -16t-48.5 -5q-47 0 -86 16t-67.5 45.5t-44.5 70t-16 90.5q0 52 18 93t50 69.5t75.5 44t93.5 15.5t93.5 -15.5t75.5 -44t50 -69.5t18 -93q0 -31 -5 -57t-14 -50t-21.5 -46.5t-26.5 -45.5l-188 -299h-98zM278 348q32 0 60 10.5t48.5 30
t32.5 47t12 62.5q0 34 -12 62t-32.5 47.5t-48.5 30t-60 10.5t-60 -10.5t-48.5 -30t-32.5 -47.5t-12 -62q0 -35 12 -62.5t32.5 -47t48.5 -30t60 -10.5z" />
    <glyph glyph-name="colon" unicode=":" horiz-adv-x="278" 
d="M139 480q25 0 42.5 -17.5t17.5 -42.5t-18.5 -42.5t-41.5 -17.5t-41.5 17.5t-18.5 42.5t17.5 42.5t42.5 17.5zM139 114q25 0 42.5 -17.5t17.5 -42.5t-18.5 -42.5t-41.5 -17.5t-41.5 17.5t-18.5 42.5t17.5 42.5t42.5 17.5z" />
    <glyph glyph-name="semicolon" unicode=";" horiz-adv-x="278" 
d="M129 -138h-77l68 240h91zM139 480q25 0 42.5 -17.5t17.5 -42.5t-18.5 -42.5t-41.5 -17.5t-41.5 17.5t-18.5 42.5t17.5 42.5t42.5 17.5z" />
    <glyph glyph-name="less" unicode="&#x3c;" horiz-adv-x="666" 
d="M594 498l-441 -195l441 -195v-66l-522 232v58l522 232v-66z" />
    <glyph glyph-name="equal" unicode="=" horiz-adv-x="666" 
d="M72 414h522v-66h-522v66zM72 258h522v-66h-522v66z" />
    <glyph glyph-name="greater" unicode="&#x3e;" horiz-adv-x="666" 
d="M72 108l441 195l-441 195v66l522 -232v-58l-522 -232v66z" />
    <glyph glyph-name="question" unicode="?" horiz-adv-x="482" 
d="M189 261q0 28 3.5 46t11.5 32.5t21 28.5t33 34q15 16 30.5 31.5t28 32.5t20.5 36t8 43q0 48 -27.5 78.5t-78.5 30.5t-82.5 -30t-39.5 -79l-90 10q7 41 26 73t46.5 53.5t63.5 33t77 11.5t76.5 -11.5t62 -34t41.5 -56t15 -76.5q0 -33 -9.5 -59.5t-25 -49t-36.5 -43
t-43 -41.5q-16 -15 -25.5 -26t-14.5 -23t-6.5 -26.5t-1.5 -35.5v-46h-84v63zM231 114q25 0 42.5 -17.5t17.5 -42.5t-18.5 -42.5t-41.5 -17.5t-41.5 17.5t-18.5 42.5t17.5 42.5t42.5 17.5z" />
    <glyph glyph-name="at" unicode="@" horiz-adv-x="800" 
d="M262 293q0 -42 24.5 -69t62.5 -27q33 0 61 21.5t49 53.5t33 69t12 68q0 19 -7 36t-18 30t-25.5 20.5t-30.5 7.5q-35 0 -64.5 -20.5t-51 -52t-33.5 -68t-12 -69.5zM535 267q-4 -12 -6.5 -25.5t-2.5 -24.5q0 -20 24 -20t49 18.5t45 49t33 69.5t13 81q0 59 -23 106.5t-61 81
t-87 51.5t-101 18q-65 0 -121 -25.5t-97.5 -69t-65.5 -101.5t-24 -122q0 -67 25 -125t67 -101t98 -67.5t118 -24.5q37 0 73.5 8.5t69.5 24.5t60.5 38.5t48.5 49.5h63q-24 -41 -58 -73.5t-75 -55t-87 -34.5t-95 -12q-79 0 -147 29t-118.5 79.5t-79.5 118t-29 145.5t29.5 146
t80.5 118t119 79t145 29q69 0 130 -22.5t107.5 -63t73.5 -97t27 -123.5q0 -65 -23.5 -118t-58.5 -91t-76 -59t-76 -21q-26 0 -44 16t-20 50h-2q-23 -27 -52 -46.5t-73 -19.5q-32 0 -58 12t-44.5 33t-28.5 49t-10 61q0 52 16.5 103t47 91t73.5 64.5t96 24.5q35 0 64.5 -18.5
t46.5 -63.5h2l18 63h65z" />
    <glyph glyph-name="A" unicode="A" horiz-adv-x="704" 
d="M318 708h79l301 -708h-98l-72 174h-354l-73 -174h-95zM356 600h-2l-147 -348h289z" />
    <glyph glyph-name="B" unicode="B" horiz-adv-x="630" 
d="M88 708h216q43 0 85.5 -9t75.5 -29.5t53.5 -53.5t20.5 -82q0 -63 -33.5 -103t-90.5 -57v-2q34 -3 63.5 -17.5t51 -37.5t33.5 -53.5t12 -65.5q0 -59 -24.5 -97t-64 -60.5t-89 -31.5t-98.5 -9h-211v708zM172 408h116q30 0 58.5 4t51.5 16.5t37 35t14 59.5q0 33 -13 53.5
t-34.5 32.5t-49 16.5t-55.5 4.5h-125v-222zM172 78h142q31 0 61.5 6.5t55 21t39.5 38t15 57.5q0 37 -14.5 62t-38 40t-54 21t-62.5 6h-144v-252z" />
    <glyph glyph-name="C" unicode="C" horiz-adv-x="704" 
d="M584 562q-32 43 -79 64.5t-98 21.5q-59 0 -108.5 -24t-85.5 -64.5t-56 -94t-20 -111.5q0 -62 20 -115.5t55.5 -93t85 -62.5t109.5 -23q66 0 116.5 25.5t88.5 73.5l63 -53q-48 -64 -115.5 -94t-152.5 -30q-77 0 -142.5 28t-114 77.5t-76 117.5t-27.5 149q0 78 26.5 146
t74.5 118t114 79t145 29q72 0 138.5 -26t111.5 -85z" />
    <glyph glyph-name="D" unicode="D" horiz-adv-x="741" 
d="M75 708h272q35 0 74 -8t77.5 -25.5t74 -45.5t62.5 -67.5t43 -91t16 -116.5t-16 -116.5t-43 -91t-62.5 -67.5t-74 -45.5t-77.5 -25.5t-74 -8h-272v708zM159 78h160q61 0 113 16t90 49.5t60 85.5t22 125t-22 125t-60 85.5t-90 49.5t-113 16h-160v-552z" />
    <glyph glyph-name="E" unicode="E" horiz-adv-x="593" 
d="M88 708h445v-78h-361v-222h337v-78h-337v-252h379v-78h-463v708z" />
    <glyph glyph-name="F" unicode="F" 
d="M88 708h439v-78h-355v-234h330v-78h-330v-318h-84v708z" />
    <glyph glyph-name="G" unicode="G" horiz-adv-x="778" 
d="M690 48q-61 -34 -128.5 -50t-136.5 -16q-83 0 -152 27t-119.5 76t-78.5 117.5t-28 151.5q0 84 29.5 152.5t81.5 117t121 75.5t149 27q70 0 134.5 -21t115.5 -72l-63 -66q-36 39 -87.5 60t-105.5 21q-61 0 -113 -22t-90.5 -61t-60 -93t-21.5 -118q0 -63 21.5 -117
t60 -93.5t92.5 -61.5t119 -22q43 0 90 10.5t86 30.5v217h-163v78h247v-348z" />
    <glyph glyph-name="H" unicode="H" horiz-adv-x="722" 
d="M88 708h84v-300h378v300h84v-708h-84v330h-378v-330h-84v708z" />
    <glyph glyph-name="I" unicode="I" horiz-adv-x="260" 
d="M88 708h84v-708h-84v708z" />
    <glyph glyph-name="J" unicode="J" horiz-adv-x="482" 
d="M394 183q0 -36 -10.5 -71.5t-34 -64.5t-62 -47t-95.5 -18q-75 0 -125 38t-64 114l84 17q8 -42 34.5 -66.5t71.5 -24.5q36 0 59 13t35.5 34t17.5 48.5t5 56.5v496h84v-525z" />
    <glyph glyph-name="K" unicode="K" horiz-adv-x="630" 
d="M88 708h84v-306h12l322 306h121l-350 -323l367 -385h-123l-337 360h-12v-360h-84v708z" />
    <glyph glyph-name="L" unicode="L" horiz-adv-x="500" 
d="M88 708h84v-630h324v-78h-408v708z" />
    <glyph glyph-name="M" unicode="M" horiz-adv-x="907" 
d="M88 708h125l240 -555h2l242 555h122v-708h-84v594h-2l-254 -594h-51l-254 594h-2v-594h-84v708z" />
    <glyph glyph-name="N" unicode="N" horiz-adv-x="778" 
d="M88 708h106l410 -588h2v588h84v-708h-106l-410 588h-2v-588h-84v708z" />
    <glyph glyph-name="O" unicode="O" horiz-adv-x="834" 
d="M417 -18q-81 0 -148.5 28t-117 77.5t-77 118t-27.5 148.5t27.5 148.5t77 118t117 77.5t148.5 28t148.5 -28t117 -77.5t77 -118t27.5 -148.5t-27.5 -148.5t-77 -118t-117 -77.5t-148.5 -28zM417 60q62 0 113.5 23t88.5 63t57.5 93.5t20.5 114.5t-20.5 114.5t-57.5 93.5
t-88.5 63t-113.5 23t-113.5 -23t-88.5 -63t-57.5 -93.5t-20.5 -114.5t20.5 -114.5t57.5 -93.5t88.5 -63t113.5 -23z" />
    <glyph glyph-name="P" unicode="P" horiz-adv-x="593" 
d="M88 708h210q49 0 93.5 -9.5t79 -32t55 -60t20.5 -92.5q0 -58 -22 -96t-56.5 -60t-75.5 -31t-78 -9h-142v-318h-84v708zM172 396h142q63 0 102.5 28.5t39.5 88.5t-39.5 88.5t-102.5 28.5h-142v-234z" />
    <glyph glyph-name="Q" unicode="Q" horiz-adv-x="834" 
d="M822 0h-411q-78 0 -144.5 28t-115 76.5t-76.5 115t-28 143.5t28 143.5t76.5 115t115 76.5t144.5 28t144.5 -28t115 -76.5t76.5 -115t28 -143.5q0 -45 -12 -89.5t-34.5 -83t-54 -69t-71.5 -47.5v-2h219v-72zM137 363q0 -60 21 -112t57.5 -90.5t86.5 -60.5t109 -22
q58 0 108.5 22t87 60.5t57.5 90.5t21 112q0 59 -20.5 111t-57 90.5t-86.5 61t-110 22.5t-110 -22.5t-86.5 -61t-57 -90.5t-20.5 -111z" />
    <glyph glyph-name="R" unicode="R" horiz-adv-x="611" 
d="M88 708h181q51 0 101.5 -6t90.5 -26t65 -58.5t25 -104.5q0 -78 -46.5 -126t-130.5 -61l201 -326h-103l-192 318h-108v-318h-84v708zM172 396h75q34 0 72 2t69.5 13t52 34.5t20.5 67.5q0 38 -15 61t-39.5 35.5t-55 16.5t-61.5 4h-118v-234z" />
    <glyph glyph-name="S" unicode="S" 
d="M424 583q-21 34 -56 49.5t-73 15.5q-28 0 -55 -7t-48.5 -21t-34.5 -37t-13 -54q0 -24 7.5 -42.5t24.5 -33.5t46 -28t71 -26q41 -13 79.5 -28t68 -38t47 -57.5t17.5 -86.5q0 -53 -21 -92t-55.5 -64.5t-79.5 -38t-93 -12.5q-30 0 -61.5 5.5t-60 17t-53.5 30t-43 45.5l72 59
q23 -39 64 -59t87 -20q27 0 54.5 8t49.5 23.5t36 38.5t14 53q0 33 -11 53.5t-34 35.5t-58 27t-82 28q-38 12 -70 27.5t-55.5 38t-37 54t-13.5 75.5q0 51 20 89t54 63.5t77 38.5t90 13q60 0 109.5 -18.5t88.5 -64.5z" />
    <glyph glyph-name="T" unicode="T" horiz-adv-x="574" 
d="M563 630h-234v-630h-84v630h-234v78h552v-78z" />
    <glyph glyph-name="U" unicode="U" horiz-adv-x="704" 
d="M619 270q0 -58 -14.5 -110t-46 -91.5t-82.5 -63t-124 -23.5t-124 23.5t-82.5 63t-46 91.5t-14.5 110v438h84v-426q0 -43 9 -83t30 -71t56 -49.5t88 -18.5q52 0 87.5 18.5t56.5 49.5t30 71t9 83v426h84v-438z" />
    <glyph glyph-name="V" unicode="V" horiz-adv-x="611" 
d="M-9 708h95l218 -582h2l225 582h89l-277 -708h-81z" />
    <glyph glyph-name="W" unicode="W" horiz-adv-x="963" 
d="M6 708h93l161 -588h2l174 588h94l173 -588h2l164 588h88l-208 -708h-91l-175 600h-2l-176 -600h-92z" />
    <glyph glyph-name="X" unicode="X" horiz-adv-x="630" 
d="M255 373l-238 335h108l191 -277l189 277h105l-238 -335l261 -373h-111l-210 314l-211 -314h-104z" />
    <glyph glyph-name="Y" unicode="Y" horiz-adv-x="594" 
d="M255 305l-264 403h107l199 -320l205 320h101l-264 -403v-305h-84v305z" />
    <glyph glyph-name="Z" unicode="Z" horiz-adv-x="574" 
d="M29 75l409 555h-403v78h505v-72l-409 -558h414v-78h-516v75z" />
    <glyph glyph-name="bracketleft" unicode="[" horiz-adv-x="259" 
d="M193 672h-93v-768h93v-60h-165v888h165v-60z" />
    <glyph glyph-name="backslash" unicode="\" horiz-adv-x="370" 
d="M3 726l63 24l301 -768l-63 -25z" />
    <glyph glyph-name="bracketright" unicode="]" horiz-adv-x="259" 
d="M66 732h165v-888h-165v60h93v768h-93v60z" />
    <glyph glyph-name="asciicircum" unicode="^" horiz-adv-x="666" 
d="M303 708h60l223 -433h-74l-179 349l-179 -349h-74z" />
    <glyph glyph-name="underscore" unicode="_" horiz-adv-x="500" 
d="M0 -75h500v-50h-500v50z" />
    <glyph glyph-name="grave" unicode="`" horiz-adv-x="240" 
d="M189 564h-71l-143 144h110z" />
    <glyph glyph-name="a" unicode="a" horiz-adv-x="519" 
d="M68 408q36 37 85.5 54.5t100.5 17.5q105 0 150.5 -49t45.5 -149v-201q0 -20 2 -41.5t5 -39.5h-75q-4 16 -4.5 35.5t-0.5 34.5h-2q-23 -36 -61.5 -59t-92.5 -23q-36 0 -67.5 9t-55 26.5t-37.5 43.5t-14 60q0 58 30 91t74.5 49t96 20t94.5 4h30v14q0 51 -30.5 77t-85.5 26
q-38 0 -74.5 -12.5t-64.5 -38.5zM294 225q-75 0 -119 -21t-44 -69q0 -44 29.5 -62.5t73.5 -18.5q34 0 59.5 11.5t42.5 30.5t26 44.5t10 54.5v30h-78z" />
    <glyph glyph-name="b" unicode="b" horiz-adv-x="611" 
d="M70 756h78v-356h2q32 38 74.5 59t93.5 21q55 0 100.5 -18.5t77.5 -51.5t50 -78t18 -98t-18 -98t-49.5 -78t-74.5 -51.5t-92 -18.5q-63 0 -110.5 27.5t-69.5 67.5h-2v-83h-78v756zM148 234q0 -37 11.5 -68.5t33.5 -55t52.5 -37t68.5 -13.5t68.5 13.5t52.5 37t33.5 55
t11.5 68.5t-11.5 68.5t-33.5 55t-52.5 37t-68.5 13.5t-68.5 -13.5t-52.5 -37t-33.5 -55t-11.5 -68.5z" />
    <glyph glyph-name="c" unicode="c" horiz-adv-x="482" 
d="M407 351q-25 30 -54 43.5t-64 13.5q-39 0 -69 -13.5t-49.5 -37.5t-29.5 -55.5t-10 -67.5t11.5 -67.5t32 -55.5t49.5 -37.5t65 -13.5q77 0 119 58l58 -55q-34 -39 -80 -57t-97 -18q-54 0 -99 18t-76.5 51t-49 78t-17.5 99q0 53 17.5 98t49.5 78t76.5 51.5t98.5 18.5
q52 0 98.5 -18t81.5 -56z" />
    <glyph glyph-name="d" unicode="d" horiz-adv-x="611" 
d="M463 83h-2q-22 -40 -69.5 -67.5t-110.5 -27.5q-50 0 -92.5 18.5t-74 51.5t-49.5 78t-18 98t18 98t50 78t77.5 51.5t100.5 18.5q51 0 93.5 -21t74.5 -59h2v356h78v-756h-78v83zM463 234q0 37 -11.5 68.5t-33.5 55t-52.5 37t-68.5 13.5t-68.5 -13.5t-52.5 -37t-33.5 -55
t-11.5 -68.5t11.5 -68.5t33.5 -55t52.5 -37t68.5 -13.5t68.5 13.5t52.5 37t33.5 55t11.5 68.5z" />
    <glyph glyph-name="e" unicode="e" 
d="M492 85q-42 -54 -92 -75.5t-116 -21.5q-55 0 -99 19.5t-74.5 52.5t-47 78t-16.5 96q0 54 18 99.5t50 78t76 50.5t96 18q49 0 90 -16.5t70.5 -48t45.5 -77t16 -103.5v-25h-378q2 -30 14.5 -57.5t32.5 -48t47 -32.5t59 -12q51 0 86 18t63 53zM425 276q-2 60 -38.5 96
t-102.5 36t-105.5 -36t-47.5 -96h294z" />
    <glyph glyph-name="f" unicode="f" horiz-adv-x="315" 
d="M114 402h-102v66h102v105q0 43 8 78.5t27.5 61.5t51.5 40.5t79 14.5q15 0 32 -3t28 -9l-11 -70q-27 10 -53 10q-30 0 -47 -10.5t-25.5 -29t-10 -44.5t-1.5 -56v-88h114v-66h-114v-402h-78v402z" />
    <glyph glyph-name="g" unicode="g" horiz-adv-x="611" 
d="M541 21q0 -129 -65 -195t-190 -66q-69 0 -124 20t-106 69l56 64q37 -40 78.5 -60.5t95.5 -20.5q52 0 86.5 15.5t54.5 42t28 60.5t8 71v60h-2q-28 -45 -72.5 -66t-92.5 -21q-56 0 -101.5 18t-78.5 50t-51 76t-18 96q0 57 18 103t50.5 77.5t78.5 48.5t102 17
q48 0 94.5 -22.5t70.5 -69.5h2v80h78v-447zM131 234q0 -36 13 -66.5t35.5 -53t52.5 -35.5t64 -13q40 0 71 14t52.5 37.5t32.5 54t11 64.5q0 38 -12 69.5t-34 54.5t-53 35.5t-68 12.5t-67.5 -13.5t-52 -37t-33.5 -55t-12 -68.5z" />
    <glyph glyph-name="h" unicode="h" 
d="M74 756h78v-353h2q8 13 22 27t33.5 25t43.5 18t51 7q46 0 79.5 -14t55.5 -39t32.5 -60.5t10.5 -77.5v-289h-78v281q0 60 -26 93.5t-81 33.5q-38 0 -65.5 -13t-45 -37t-26 -57t-8.5 -73v-228h-78v756z" />
    <glyph glyph-name="i" unicode="i" horiz-adv-x="240" 
d="M81 468h78v-468h-78v468zM63 651q0 23 16.5 40t40.5 17t40.5 -17t16.5 -40q0 -25 -16 -41t-41 -16t-41 16t-16 41z" />
    <glyph glyph-name="j" unicode="j" horiz-adv-x="240" 
d="M159 -105q0 -18 -5.5 -41.5t-20.5 -44t-42.5 -35t-70.5 -14.5q-14 0 -27.5 2t-26.5 8l9 68q19 -6 38 -6q22 0 35.5 8t20.5 21.5t9.5 31.5t2.5 38v537h78v-573zM63 651q0 23 16.5 40t40.5 17t40.5 -17t16.5 -40q0 -25 -16 -41t-41 -16t-41 16t-16 41z" />
    <glyph glyph-name="k" unicode="k" horiz-adv-x="500" 
d="M74 756h78v-494l213 206h111l-226 -213l249 -255h-115l-232 246v-246h-78v756z" />
    <glyph glyph-name="l" unicode="l" horiz-adv-x="240" 
d="M81 756h78v-756h-78v756z" />
    <glyph glyph-name="m" unicode="m" horiz-adv-x="852" 
d="M74 357q0 32 -2 60t-2 51h74q0 -19 1 -38t1 -39h2q8 17 22.5 33t34.5 28.5t45 20t54 7.5q38 0 63.5 -9.5t42.5 -23t26.5 -29t15.5 -27.5q26 42 60 65.5t88 23.5q50 0 84 -13.5t55 -39t30 -62t9 -81.5v-284h-78v280q0 24 -5 47t-18 41t-35 29t-56 11q-25 0 -47 -10
t-38.5 -28t-26 -43.5t-9.5 -56.5v-270h-78v265q0 78 -21 110.5t-69 32.5q-38 0 -65.5 -13t-45 -37t-26 -57t-8.5 -73v-228h-78v357z" />
    <glyph glyph-name="n" unicode="n" 
d="M74 357q0 32 -2 60t-2 51h74q0 -19 1 -38t1 -39h2q8 17 22.5 33t34.5 28.5t45 20t54 7.5q46 0 79.5 -14t55.5 -39t32.5 -60.5t10.5 -77.5v-289h-78v281q0 60 -26 93.5t-81 33.5q-38 0 -65.5 -13t-45 -37t-26 -57t-8.5 -73v-228h-78v357z" />
    <glyph glyph-name="o" unicode="o" horiz-adv-x="594" 
d="M47 234q0 55 19 100t52 77.5t79 50.5t100 18t100 -18t79 -50.5t52 -77.5t19 -100t-19 -100t-52 -77.5t-79 -50.5t-100 -18t-100 18t-79 50.5t-52 77.5t-19 100zM131 234q0 -37 11.5 -68.5t33.5 -55t52.5 -37t68.5 -13.5t68.5 13.5t52.5 37t33.5 55t11.5 68.5t-11.5 68.5
t-33.5 55t-52.5 37t-68.5 13.5t-68.5 -13.5t-52.5 -37t-33.5 -55t-11.5 -68.5z" />
    <glyph glyph-name="p" unicode="p" horiz-adv-x="611" 
d="M70 468h78v-68h2q32 38 74.5 59t93.5 21q55 0 100.5 -18.5t77.5 -51.5t50 -78t18 -98t-18 -98t-49.5 -78t-74.5 -51.5t-92 -18.5q-63 0 -110.5 27.5t-69.5 67.5h-2v-311h-78v696zM148 234q0 -37 11.5 -68.5t33.5 -55t52.5 -37t68.5 -13.5t68.5 13.5t52.5 37t33.5 55
t11.5 68.5t-11.5 68.5t-33.5 55t-52.5 37t-68.5 13.5t-68.5 -13.5t-52.5 -37t-33.5 -55t-11.5 -68.5z" />
    <glyph glyph-name="q" unicode="q" horiz-adv-x="611" 
d="M541 -228h-78v296h-2q-32 -38 -74.5 -59t-93.5 -21q-55 0 -100.5 18.5t-77.5 51.5t-50 78t-18 98q0 52 18 97t49.5 78t74 52t92.5 19q63 0 110.5 -27.5t69.5 -67.5h2v83h78v-696zM463 234q0 37 -11.5 68.5t-33.5 55t-52.5 37t-68.5 13.5t-68.5 -13.5t-52.5 -37t-33.5 -55
t-11.5 -68.5t11.5 -68.5t33.5 -55t52.5 -37t68.5 -13.5t68.5 13.5t52.5 37t33.5 55t11.5 68.5z" />
    <glyph glyph-name="r" unicode="r" horiz-adv-x="352" 
d="M74 357q0 32 -2 60t-2 51h74q0 -19 1 -38t1 -39h2q8 17 22.5 33t34.5 28.5t45 20t54 7.5q18 0 32 -5l-5 -79q-20 6 -42 6q-72 0 -104.5 -46.5t-32.5 -127.5v-228h-78v357z" />
    <glyph glyph-name="s" unicode="s" horiz-adv-x="426" 
d="M84 123q23 -29 50.5 -46t69.5 -17q18 0 36.5 4t33.5 13t24 22.5t9 32.5t-8.5 31t-22.5 20.5t-32 13.5t-37 9q-33 7 -63 16t-52.5 23.5t-36 37.5t-13.5 59q0 34 15 60t40 43t56 26t64 9q51 0 93 -20t66 -65l-65 -43q-15 25 -39.5 40.5t-59.5 15.5q-16 0 -32.5 -4
t-29.5 -12t-21.5 -20.5t-8.5 -28.5q0 -14 9.5 -25t26 -19t38 -14t44.5 -10q31 -6 59 -15.5t49 -25.5t33 -40t12 -59q0 -40 -16 -68t-42.5 -45.5t-60 -25.5t-68.5 -8q-60 0 -103.5 18.5t-78.5 68.5z" />
    <glyph glyph-name="t" unicode="t" horiz-adv-x="352" 
d="M330 402h-138v-234q0 -23 1 -42.5t8 -34t21 -23t40 -8.5q17 0 35 4t34 12l3 -71q-20 -9 -44.5 -13t-46.5 -4q-42 0 -67 11t-39 31t-18.5 49.5t-4.5 65.5v257h-102v66h102v133h78v-133h138v-66z" />
    <glyph glyph-name="u" unicode="u" 
d="M482 111q0 -32 2 -60t2 -51h-74q0 19 -1 38t-1 39h-2q-8 -17 -22.5 -33t-34.5 -28.5t-45 -20t-54 -7.5q-46 0 -79.5 14t-55.5 39t-32.5 60.5t-10.5 77.5v289h78v-281q0 -60 26 -93.5t81 -33.5q38 0 65.5 13t45 37t26 57t8.5 73v228h78v-357z" />
    <glyph glyph-name="v" unicode="v" horiz-adv-x="482" 
d="M287 0h-86l-191 468h91l146 -367h2l139 367h84z" />
    <glyph glyph-name="w" unicode="w" horiz-adv-x="741" 
d="M576 0h-77l-133 360h-2l-118 -360h-80l-152 468h86l107 -360h2l121 360h82l123 -360h2l106 360h84z" />
    <glyph glyph-name="x" unicode="x" horiz-adv-x="500" 
d="M195 252l-168 216h102l124 -168l117 168h95l-161 -216l193 -252h-103l-148 202l-146 -202h-97z" />
    <glyph glyph-name="y" unicode="y" horiz-adv-x="482" 
d="M246 -107q-12 -30 -24.5 -54.5t-30 -42t-42 -27t-59.5 -9.5q-17 0 -35.5 2t-34.5 10l10 68q12 -5 25 -6.5t30 -1.5q38 0 56 21t31 56l32 88l-194 471h91l145 -367h2l139 367h85z" />
    <glyph glyph-name="z" unicode="z" horiz-adv-x="444" 
d="M30 61l275 341h-263v66h365v-60l-275 -342h282v-66h-384v61z" />
    <glyph glyph-name="braceleft" unicode="{" horiz-adv-x="333" 
d="M294 672h-54q-16 0 -25.5 -6.5t-15 -18t-7 -25.5t-1.5 -29v-176q0 -34 -10 -57.5t-24 -38.5t-28.5 -22.5t-23.5 -9.5v-2q9 -1 23.5 -7.5t28.5 -21t24 -39t10 -61.5v-175q0 -15 1.5 -29t7 -25t15 -18t25.5 -7h54v-60h-70q-19 0 -37.5 8t-33.5 24t-24.5 39.5t-9.5 53.5v175
q0 27 -7.5 48t-19.5 36t-27.5 22.5t-31.5 7.5v60q16 0 31.5 8t27.5 22.5t19.5 35.5t7.5 47v176q0 30 10 53.5t25 39.5t33.5 24t36.5 8h70v-60z" />
    <glyph glyph-name="bar" unicode="|" horiz-adv-x="222" 
d="M144 750v-1000h-66v1000h66z" />
    <glyph glyph-name="braceright" unicode="}" horiz-adv-x="333" 
d="M39 732h70q18 0 36.5 -8t33.5 -24t25 -39.5t10 -53.5v-176q0 -26 7.5 -47t19.5 -35.5t27.5 -22.5t31.5 -8v-60q-16 0 -31.5 -7.5t-27.5 -22.5t-19.5 -36t-7.5 -48v-175q0 -30 -9.5 -53.5t-24.5 -39.5t-33.5 -24t-37.5 -8h-70v60h54q16 0 25.5 7t14.5 18t7 25t2 29v175
q0 37 10 61.5t24 39t28.5 21t23.5 7.5v2q-9 2 -23.5 9.5t-28.5 22.5t-24 38.5t-10 57.5v176q0 15 -2 29t-7 25.5t-14.5 18t-25.5 6.5h-54v60z" />
    <glyph glyph-name="asciitilde" unicode="~" horiz-adv-x="666" 
d="M563 324q-12 -16 -24 -31.5t-27 -28t-33 -20.5t-42 -8q-27 0 -52 9.5t-50 20.5q-29 13 -56 25.5t-59 12.5q-33 0 -52.5 -22t-31.5 -48l-33 48q11 16 23 31.5t27 28t33.5 20.5t41.5 8q27 0 52 -9.5t50 -20.5q29 -13 56 -25.5t59 -12.5q33 0 52.5 22t32.5 48z" />
    <glyph glyph-name="exclamdown" unicode="&#xa1;" horiz-adv-x="278" 
d="M97 288h84v-510h-84v510zM139 372q-25 0 -42.5 17.5t-17.5 42.5t18.5 42.5t41.5 17.5t41.5 -17.5t18.5 -42.5t-17.5 -42.5t-42.5 -17.5z" />
    <glyph glyph-name="cent" unicode="&#xa2;" 
d="M277 406q-63 -12 -94.5 -60t-31.5 -112t34 -111.5t92 -61.5v345zM277 -12q-48 6 -86.5 26.5t-66 52.5t-42.5 74.5t-15 92.5q0 49 15 91.5t42.5 74.5t66.5 52t86 25v69h48v-66q48 -2 90 -20.5t74 -53.5l-62 -55q-42 51 -102 57v-348q64 4 103 58l58 -55q-31 -36 -72 -54
t-89 -21v-66h-48v66z" />
    <glyph glyph-name="sterling" unicode="&#xa3;" 
d="M57 78h108v252h-96v66h96v80q0 65 16.5 111.5t45 76t68 43t84.5 13.5t87 -15t74 -47l-55 -59q-23 23 -49 36t-59 13q-37 0 -61.5 -12.5t-39.5 -35.5t-21 -55t-6 -71v-78h162v-66h-162v-252h246v-78h-438v78z" />
    <glyph glyph-name="currency" unicode="&#xa4;" 
d="M106 354q0 -35 13.5 -67t37 -57t55 -39.5t66.5 -14.5t66.5 14.5t55 39.5t37 57t13.5 67q0 36 -13.5 68.5t-37 57t-55 38.5t-66.5 14t-66.5 -14t-55 -38.5t-37 -57t-13.5 -68.5zM82 203q-54 67 -54 151q0 87 54 152l-54 54l44 44l54 -53q67 53 152 53t152 -53l54 53
l44 -44l-54 -54q54 -65 54 -152q0 -84 -54 -151l54 -55l-44 -44l-54 55q-33 -26 -71.5 -40.5t-80.5 -14.5t-80.5 14.5t-71.5 40.5l-54 -55l-44 44z" />
    <glyph glyph-name="yen" unicode="&#xa5;" 
d="M236 174h-159v60h159v71l-9 16h-150v60h114l-191 327h100l178 -327l178 327h100l-191 -327h114v-60h-150l-9 -16v-71h159v-60h-159v-174h-84v174z" />
    <glyph glyph-name="brokenbar" unicode="&#xa6;" horiz-adv-x="222" 
d="M144 675v-350h-66v350h66zM144 175v-350h-66v350h66z" />
    <glyph glyph-name="section" unicode="&#xa7;" 
d="M388 591q-12 33 -41.5 48t-61.5 15q-20 0 -38.5 -5t-33.5 -15.5t-24 -27t-9 -38.5q0 -49 44 -72l98 -49q26 -12 53 -27t49 -34.5t36 -45t14 -58.5q0 -46 -24 -79t-62 -54q32 -21 50.5 -51t18.5 -72q0 -43 -17.5 -75t-46 -53t-65.5 -31.5t-75 -10.5q-66 0 -119 29.5
t-78 93.5l77 36q14 -46 47.5 -66.5t78.5 -20.5q21 0 40.5 5t34.5 16.5t24 29t9 41.5q0 21 -9.5 36.5t-24.5 27t-32.5 20t-33.5 16.5l-122 64q-35 18 -54 50t-19 72q0 53 28.5 86t72.5 54q-35 20 -56 48t-21 70q0 40 16.5 70.5t43.5 50.5t61.5 30.5t70.5 10.5q26 0 52 -5.5
t49.5 -16.5t42.5 -29t31 -43zM325 183q25 11 45 34.5t20 52.5q0 21 -9.5 37t-23.5 28.5t-31 22.5t-33 18l-58 29q-15 -6 -30 -13t-27 -17t-20 -23.5t-8 -32.5q0 -20 8 -34t20 -25t27.5 -19t30.5 -15z" />
    <glyph glyph-name="dieresis" unicode="&#xa8;" horiz-adv-x="240" 
d="M21 684q23 0 38.5 -16t15.5 -38q0 -23 -15.5 -38.5t-38.5 -15.5t-38.5 15.5t-15.5 38.5q0 22 15.5 38t38.5 16zM219 684q23 0 38.5 -16t15.5 -38q0 -23 -15.5 -38.5t-38.5 -15.5t-38.5 15.5t-15.5 38.5q0 22 15.5 38t38.5 16z" />
    <glyph glyph-name="copyright" unicode="&#xa9;" horiz-adv-x="800" 
d="M600 282q-16 -72 -66 -114t-119 -42q-51 0 -92 17.5t-70 48t-44.5 72t-15.5 90.5t15 91t43 72t69 47t92 17q35 0 66.5 -9.5t56 -28.5t41.5 -47.5t23 -65.5h-61q-8 42 -41 69.5t-84 27.5q-38 0 -66.5 -13.5t-48 -36.5t-29.5 -54.5t-10 -68.5q0 -35 11 -66.5t31.5 -55.5
t49 -38t64.5 -14q51 0 83.5 28.5t39.5 73.5h62zM28 354q0 79 29.5 147.5t80.5 118t118.5 78t143.5 28.5t143.5 -28.5t118.5 -78t80.5 -118t29.5 -147.5q0 -80 -29.5 -148t-80.5 -117.5t-118.5 -78t-143.5 -28.5t-143.5 28.5t-118.5 78t-80.5 117.5t-29.5 148zM94 354
q0 -68 24 -126t65 -100.5t97 -67t120 -24.5t119.5 24.5t97 67t65.5 100.5t24 126q0 67 -24 125.5t-65.5 101t-97 67t-119.5 24.5t-120 -24.5t-97 -67t-65 -101t-24 -125.5z" />
    <glyph glyph-name="ordfeminine" unicode="&#xaa;" horiz-adv-x="337" 
d="M300 473q0 -23 4 -43h-61q-3 24 -3 45h-2q-14 -28 -39 -39.5t-61 -11.5q-46 0 -75.5 21.5t-29.5 66.5q0 34 19.5 53.5t47.5 28.5t60 11t57 2h23v14q0 14 -18 29.5t-55 15.5q-29 0 -53.5 -10t-35.5 -21l-31 42q23 22 55 32.5t65 10.5q72 0 102.5 -29.5t30.5 -89.5v-128z
M192 559q-12 0 -28 -0.5t-30.5 -5t-24.5 -14t-10 -26.5t16 -26t41 -9q41 0 62.5 21t21.5 43v17h-48z" />
    <glyph glyph-name="guillemotleft" unicode="&#xab;" horiz-adv-x="500" 
d="M139 240l117 -178l-55 -36l-143 214l143 214l55 -36zM325 240l117 -178l-55 -36l-143 214l143 214l55 -36z" />
    <glyph glyph-name="logicalnot" unicode="&#xac;" horiz-adv-x="666" 
d="M72 414h522v-278h-66v212h-456v66z" />
    <glyph glyph-name="registered" unicode="&#xae;" horiz-adv-x="800" 
d="M258 572h164q152 0 152 -124q0 -59 -33 -86.5t-82 -32.5l125 -192h-71l-118 187h-71v-187h-66v435zM324 378h68q22 0 43 1.5t37 8.5t26 22t10 41q0 22 -9 35.5t-23 20.5t-31.5 9t-33.5 2h-87v-140zM28 354q0 79 29.5 147.5t80.5 118t118.5 78t143.5 28.5t143.5 -28.5
t118.5 -78t80.5 -118t29.5 -147.5q0 -80 -29.5 -148t-80.5 -117.5t-118.5 -78t-143.5 -28.5t-143.5 28.5t-118.5 78t-80.5 117.5t-29.5 148zM94 354q0 -68 24 -126t65 -100.5t97 -67t120 -24.5t119.5 24.5t97 67t65.5 100.5t24 126q0 67 -24 125.5t-65.5 101t-97 67
t-119.5 24.5t-120 -24.5t-97 -67t-65 -101t-24 -125.5z" />
    <glyph glyph-name="macron" unicode="&#xaf;" horiz-adv-x="240" 
d="M258 600h-276v60h276v-60z" />
    <glyph glyph-name="macron" unicode="&#x2c9;" horiz-adv-x="240" 
d="M258 600h-276v60h276v-60z" />
    <glyph glyph-name="degree" unicode="&#xb0;" horiz-adv-x="400" 
d="M57 577q0 30 11 56t30.5 45.5t45.5 30.5t56 11t56 -11t45.5 -30.5t30.5 -45.5t11 -56t-11 -56t-30.5 -45.5t-45.5 -30.5t-56 -11t-56 11t-45.5 30.5t-30.5 45.5t-11 56zM111 577q0 -15 6.5 -31t18 -29t28 -21t36.5 -8t36.5 8t28 21t18 29t6.5 31t-6.5 31t-18 29t-28 21
t-36.5 8t-36.5 -8t-28 -21t-18 -29t-6.5 -31z" />
    <glyph glyph-name="plusminus" unicode="&#xb1;" horiz-adv-x="666" 
d="M72 396h228v168h66v-168h228v-66h-228v-168h-66v168h-228v66zM72 108h522v-66h-522v66z" />
    <glyph glyph-name="twosuperior" unicode="&#xb2;" horiz-adv-x="361" 
d="M32 347l168 151q28 25 43.5 45t15.5 52q0 33 -21.5 52t-50.5 19q-32 0 -54.5 -18t-28.5 -49l-63 5q9 60 48 88t96 28q28 0 53.5 -7.5t45 -23t30.5 -39t11 -55.5q0 -26 -7.5 -46t-20 -37.5t-28.5 -32.5t-33 -30l-120 -104v-2h213v-54h-297v58z" />
    <glyph glyph-name="threesuperior" unicode="&#xb3;" horiz-adv-x="361" 
d="M140 538h17q12 0 28 2.5t30.5 9.5t24 20.5t9.5 36.5q0 32 -21 45.5t-50 13.5q-26 0 -47.5 -9t-33.5 -33l-55 25q19 38 55 54.5t81 16.5q27 0 52 -7t44 -21t30 -35t11 -48q0 -33 -22 -60t-57 -37v-2q45 -6 69.5 -36t24.5 -70q0 -30 -12 -52.5t-33 -37.5t-48.5 -23
t-58.5 -8q-52 0 -91 20.5t-56 71.5l54 23q4 -10 11 -21t18.5 -20t27 -14.5t36.5 -5.5q33 0 59.5 17.5t26.5 52.5q0 24 -10 39t-26 23.5t-35 11.5t-37 3h-16v54z" />
    <glyph glyph-name="acute" unicode="&#xb4;" horiz-adv-x="240" 
d="M155 708h110l-143 -144h-71z" />
    <glyph glyph-name="uni00B5" unicode="&#xb5;" 
d="M482 111q0 -32 2 -60t2 -51h-74q0 19 -1 38t-1 39h-2q-8 -17 -22.5 -33t-34.5 -28.5t-45 -20t-54 -7.5q-32 0 -54.5 5.5t-45.5 19.5v-241h-78v696h78v-281q0 -60 26 -93.5t81 -33.5q38 0 65.5 13t45 37t26 57t8.5 73v228h78v-357z" />
    <glyph glyph-name="paragraph" unicode="&#xb6;" horiz-adv-x="600" 
d="M292 316q-46 0 -84.5 14.5t-66 39.5t-43 59t-15.5 73q0 99 61 152.5t167 53.5h243v-834h-72v768h-118v-768h-72v442z" />
    <glyph glyph-name="periodcentered" unicode="&#xb7;" horiz-adv-x="278" 
d="M139 369q25 0 42.5 -17.5t17.5 -42.5t-18.5 -42.5t-41.5 -17.5t-41.5 17.5t-18.5 42.5t17.5 42.5t42.5 17.5z" />
    <glyph glyph-name="periodcentered" unicode="&#x2219;" horiz-adv-x="278" 
d="M139 369q25 0 42.5 -17.5t17.5 -42.5t-18.5 -42.5t-41.5 -17.5t-41.5 17.5t-18.5 42.5t17.5 42.5t42.5 17.5z" />
    <glyph glyph-name="cedilla" unicode="&#xb8;" horiz-adv-x="240" 
d="M113 -64q7 1 15 2.5t20 1.5q13 0 27 -4t26 -12.5t19.5 -21.5t7.5 -31q0 -24 -10.5 -41t-27.5 -27.5t-38 -15t-41 -4.5q-26 0 -51 5t-48 16l17 37q33 -16 72 -16q10 0 20.5 2t19.5 6.5t15 12.5t6 20q0 21 -17.5 29.5t-34.5 8.5q-10 0 -20 -2.5t-19 -5.5l-20 19l62 85h45z
" />
    <glyph glyph-name="onesuperior" unicode="&#xb9;" horiz-adv-x="361" 
d="M173 641h-2l-81 -66l-33 46l124 93h58v-425h-66v352z" />
    <glyph glyph-name="ordmasculine" unicode="&#xba;" horiz-adv-x="386" 
d="M30 573q0 33 12 60t34 46.5t52 30t65 10.5t65 -10.5t51.5 -30t34 -46.5t12.5 -60q0 -34 -12.5 -61.5t-34 -47t-51.5 -30t-65 -10.5t-65 10.5t-52 30t-34 47t-12 61.5zM96 573q0 -19 6.5 -36t19.5 -30t30.5 -21t40.5 -8q22 0 40 8t31 21t19.5 30.5t6.5 35.5t-6.5 34.5
t-19.5 29.5t-31 21t-40 8q-23 0 -40.5 -8t-30.5 -21t-19.5 -29.5t-6.5 -34.5z" />
    <glyph glyph-name="guillemotright" unicode="&#xbb;" horiz-adv-x="500" 
d="M175 240l-117 178l55 36l143 -214l-143 -214l-55 36zM361 240l-117 178l55 36l143 -214l-143 -214l-55 36z" />
    <glyph glyph-name="onequarter" unicode="&#xbc;" horiz-adv-x="834" 
d="M593 740l55 -32l-444 -740l-55 32zM155 642h-2l-81 -67l-33 46l124 93h58v-425h-66v353zM739 144h56v-54h-56v-90h-66v90h-195v63l183 272h78v-281zM673 347h-2l-133 -203h135v203z" />
    <glyph glyph-name="onehalf" unicode="&#xbd;" horiz-adv-x="834" 
d="M576 740l55 -32l-444 -740l-55 32zM149 642h-2l-81 -67l-33 46l124 93h58v-425h-66v353zM504 58l168 151q28 25 43.5 45t15.5 52q0 33 -21.5 52t-50.5 19q-32 0 -54.5 -18t-28.5 -49l-63 5q9 60 48 88t96 28q28 0 53.5 -7.5t45 -23t30.5 -39t11 -55.5q0 -26 -7.5 -46
t-20 -37.5t-28.5 -32.5t-33 -30l-120 -104v-2h213v-54h-297v58z" />
    <glyph glyph-name="threequarters" unicode="&#xbe;" horiz-adv-x="834" 
d="M632 740l55 -32l-444 -740l-55 32zM135 538h16q13 0 29 2.5t30 9.5t24 20.5t10 36.5q0 32 -21 45.5t-50 13.5q-26 0 -47.5 -9t-33.5 -33l-55 25q19 38 55 54.5t81 16.5q27 0 52 -7t44 -21t30 -35t11 -48q0 -33 -22 -60t-57 -37v-2q45 -6 69.5 -36t24.5 -70
q0 -30 -12 -52.5t-33 -37.5t-48.5 -23t-58.5 -8q-52 0 -91.5 20.5t-56.5 71.5l55 23q4 -10 11 -21t18.5 -20t27 -14.5t36.5 -5.5q33 0 59.5 17.5t26.5 52.5q0 24 -10 39t-26 23.5t-35 11.5t-37 3h-16v54zM753 144h56v-54h-56v-90h-66v90h-195v63l183 272h78v-281zM687 347
h-2l-133 -201v-2h135v203z" />
    <glyph glyph-name="questiondown" unicode="&#xbf;" horiz-adv-x="482" 
d="M455 -69q-7 -41 -26 -73t-46.5 -53.5t-63.5 -33t-77 -11.5t-76.5 11.5t-62 34t-41.5 55.5t-15 77q0 33 9 59.5t25 49.5t36.5 43t43.5 41q16 15 25.5 26t14.5 23t6.5 26.5t1.5 35.5v46h84v-63q0 -28 -3.5 -46t-11.5 -32.5t-21.5 -29t-32.5 -33.5q-15 -16 -30.5 -31.5
t-28 -32.5t-20.5 -36t-8 -43q0 -48 27.5 -78.5t78.5 -30.5t82.5 30t39.5 79zM251 372q-25 0 -42.5 17.5t-17.5 42.5t18.5 42.5t41.5 17.5t41.5 -17.5t18.5 -42.5t-17.5 -42.5t-42.5 -17.5z" />
    <glyph glyph-name="Agrave" unicode="&#xc0;" horiz-adv-x="704" 
d="M318 708h79l301 -708h-98l-72 174h-354l-73 -174h-95zM356 600h-2l-147 -348h289zM421 758h-71l-143 144h110z" />
    <glyph glyph-name="Aacute" unicode="&#xc1;" horiz-adv-x="704" 
d="M318 708h79l301 -708h-98l-72 174h-354l-73 -174h-95zM356 600h-2l-147 -348h289zM387 902h110l-143 -144h-71z" />
    <glyph glyph-name="Acircumflex" unicode="&#xc2;" horiz-adv-x="704" 
d="M318 708h79l301 -708h-98l-72 174h-354l-73 -174h-95zM356 600h-2l-147 -348h289zM306 902h91l112 -144h-81l-79 102l-78 -102h-76z" />
    <glyph glyph-name="Atilde" unicode="&#xc3;" horiz-adv-x="704" 
d="M318 708h79l301 -708h-98l-72 174h-354l-73 -174h-95zM356 600h-2l-147 -348h289zM185 770q3 19 10.5 38t20 33.5t29.5 23.5t40 9t43.5 -7.5t40.5 -15.5q15 -6 26.5 -11.5t27.5 -5.5q20 0 31.5 13t16.5 31h48q-3 -19 -9.5 -37.5t-18 -33.5t-27.5 -24t-38 -9
q-21 0 -41.5 6.5t-39.5 14.5q-15 6 -32 12.5t-34 6.5q-19 0 -30 -13.5t-16 -30.5h-48z" />
    <glyph glyph-name="Adieresis" unicode="&#xc4;" horiz-adv-x="704" 
d="M318 708h79l301 -708h-98l-72 174h-354l-73 -174h-95zM356 600h-2l-147 -348h289zM253 878q23 0 38.5 -16t15.5 -38q0 -23 -15.5 -38.5t-38.5 -15.5t-38.5 15.5t-15.5 38.5q0 22 15.5 38t38.5 16zM451 878q23 0 38.5 -16t15.5 -38q0 -23 -15.5 -38.5t-38.5 -15.5
t-38.5 15.5t-15.5 38.5q0 22 15.5 38t38.5 16z" />
    <glyph glyph-name="Aring" unicode="&#xc5;" horiz-adv-x="704" 
d="M318 708h79l301 -708h-98l-72 174h-354l-73 -174h-95zM356 600h-2l-147 -348h289zM253 829q0 20 7.5 38t20.5 31.5t31.5 21.5t39.5 8q45 0 72 -29.5t27 -69.5q0 -42 -28 -70.5t-71 -28.5t-71 28.5t-28 70.5zM295 829q0 -25 17.5 -41t39.5 -16t39.5 16t17.5 41
q0 24 -17.5 40.5t-39.5 16.5t-39.5 -16.5t-17.5 -40.5z" />
    <glyph glyph-name="AE" unicode="&#xc6;" horiz-adv-x="944" 
d="M450 708h435v-78h-294v-222h276v-78h-276v-252h306v-78h-390v192h-293l-123 -192h-101zM507 630h-12l-231 -360h243v360z" />
    <glyph glyph-name="Ccedilla" unicode="&#xc7;" horiz-adv-x="704" 
d="M584 562q-32 43 -79 64.5t-98 21.5q-59 0 -108.5 -24t-85.5 -64.5t-56 -94t-20 -111.5q0 -62 20 -115.5t55.5 -93t85 -62.5t109.5 -23q66 0 116.5 25.5t88.5 73.5l63 -53q-48 -64 -115.5 -94t-152.5 -30l-32 -46q7 1 15 2.5t20 1.5q13 0 27 -4t26 -12.5t19.5 -21.5
t7.5 -31q0 -24 -10.5 -41t-27.5 -27.5t-38 -15t-41 -4.5q-26 0 -51 5t-48 16l17 37q33 -16 72 -16q10 0 20.5 2t19.5 6.5t15 12.5t6 20q0 21 -17.5 29.5t-34.5 8.5q-10 0 -20 -2.5t-19 -5.5l-20 19l51 70q-68 7 -126 37.5t-100.5 79t-66.5 113t-24 139.5q0 78 26.5 146
t74.5 118t114 79t145 29q72 0 138.5 -26t111.5 -85z" />
    <glyph glyph-name="Egrave" unicode="&#xc8;" horiz-adv-x="593" 
d="M88 708h445v-78h-361v-222h337v-78h-337v-252h379v-78h-463v708zM366 758h-71l-143 144h110z" />
    <glyph glyph-name="Eacute" unicode="&#xc9;" horiz-adv-x="593" 
d="M88 708h445v-78h-361v-222h337v-78h-337v-252h379v-78h-463v708zM332 902h110l-143 -144h-71z" />
    <glyph glyph-name="Ecircumflex" unicode="&#xca;" horiz-adv-x="593" 
d="M88 708h445v-78h-361v-222h337v-78h-337v-252h379v-78h-463v708zM251 902h91l112 -144h-81l-79 102l-78 -102h-76z" />
    <glyph glyph-name="Edieresis" unicode="&#xcb;" horiz-adv-x="593" 
d="M88 708h445v-78h-361v-222h337v-78h-337v-252h379v-78h-463v708zM198 878q23 0 38.5 -16t15.5 -38q0 -23 -15.5 -38.5t-38.5 -15.5t-38.5 15.5t-15.5 38.5q0 22 15.5 38t38.5 16zM396 878q23 0 38.5 -16t15.5 -38q0 -23 -15.5 -38.5t-38.5 -15.5t-38.5 15.5t-15.5 38.5
q0 22 15.5 38t38.5 16z" />
    <glyph glyph-name="Igrave" unicode="&#xcc;" horiz-adv-x="260" 
d="M88 708h84v-708h-84v708zM199 758h-71l-143 144h110z" />
    <glyph glyph-name="Iacute" unicode="&#xcd;" horiz-adv-x="260" 
d="M88 708h84v-708h-84v708zM165 902h110l-143 -144h-71z" />
    <glyph glyph-name="Icircumflex" unicode="&#xce;" horiz-adv-x="260" 
d="M88 708h84v-708h-84v708zM84 902h91l112 -144h-81l-79 102l-78 -102h-76z" />
    <glyph glyph-name="Idieresis" unicode="&#xcf;" horiz-adv-x="260" 
d="M88 708h84v-708h-84v708zM31 878q23 0 38.5 -16t15.5 -38q0 -23 -15.5 -38.5t-38.5 -15.5t-38.5 15.5t-15.5 38.5q0 22 15.5 38t38.5 16zM229 878q23 0 38.5 -16t15.5 -38q0 -23 -15.5 -38.5t-38.5 -15.5t-38.5 15.5t-15.5 38.5q0 22 15.5 38t38.5 16z" />
    <glyph glyph-name="Eth" unicode="&#xd0;" horiz-adv-x="741" 
d="M75 708h272q35 0 74 -8t77.5 -25.5t74 -45.5t62.5 -67.5t43 -91t16 -116.5t-16 -116.5t-43 -91t-62.5 -67.5t-74 -45.5t-77.5 -25.5t-74 -8h-272v336h-72v66h72v306zM159 402h252v-66h-252v-258h160q61 0 113 16t90 49.5t60 85.5t22 125t-22 125t-60 85.5t-90 49.5
t-113 16h-160v-228z" />
    <glyph glyph-name="Ntilde" unicode="&#xd1;" horiz-adv-x="778" 
d="M88 708h106l410 -588h2v588h84v-708h-106l-410 588h-2v-588h-84v708zM222 770q3 19 10.5 38t20 33.5t29.5 23.5t40 9t43.5 -7.5t40.5 -15.5q15 -6 26.5 -11.5t27.5 -5.5q20 0 31.5 13t16.5 31h48q-3 -19 -9.5 -37.5t-18 -33.5t-27.5 -24t-38 -9q-21 0 -41.5 6.5
t-39.5 14.5q-15 6 -32 12.5t-34 6.5q-19 0 -30 -13.5t-16 -30.5h-48z" />
    <glyph glyph-name="Ograve" unicode="&#xd2;" horiz-adv-x="834" 
d="M417 -18q-81 0 -148.5 28t-117 77.5t-77 118t-27.5 148.5t27.5 148.5t77 118t117 77.5t148.5 28t148.5 -28t117 -77.5t77 -118t27.5 -148.5t-27.5 -148.5t-77 -118t-117 -77.5t-148.5 -28zM417 60q62 0 113.5 23t88.5 63t57.5 93.5t20.5 114.5t-20.5 114.5t-57.5 93.5
t-88.5 63t-113.5 23t-113.5 -23t-88.5 -63t-57.5 -93.5t-20.5 -114.5t20.5 -114.5t57.5 -93.5t88.5 -63t113.5 -23zM486 758h-71l-143 144h110z" />
    <glyph glyph-name="Oacute" unicode="&#xd3;" horiz-adv-x="834" 
d="M417 -18q-81 0 -148.5 28t-117 77.5t-77 118t-27.5 148.5t27.5 148.5t77 118t117 77.5t148.5 28t148.5 -28t117 -77.5t77 -118t27.5 -148.5t-27.5 -148.5t-77 -118t-117 -77.5t-148.5 -28zM417 60q62 0 113.5 23t88.5 63t57.5 93.5t20.5 114.5t-20.5 114.5t-57.5 93.5
t-88.5 63t-113.5 23t-113.5 -23t-88.5 -63t-57.5 -93.5t-20.5 -114.5t20.5 -114.5t57.5 -93.5t88.5 -63t113.5 -23zM452 902h110l-143 -144h-71z" />
    <glyph glyph-name="Ocircumflex" unicode="&#xd4;" horiz-adv-x="834" 
d="M417 -18q-81 0 -148.5 28t-117 77.5t-77 118t-27.5 148.5t27.5 148.5t77 118t117 77.5t148.5 28t148.5 -28t117 -77.5t77 -118t27.5 -148.5t-27.5 -148.5t-77 -118t-117 -77.5t-148.5 -28zM417 60q62 0 113.5 23t88.5 63t57.5 93.5t20.5 114.5t-20.5 114.5t-57.5 93.5
t-88.5 63t-113.5 23t-113.5 -23t-88.5 -63t-57.5 -93.5t-20.5 -114.5t20.5 -114.5t57.5 -93.5t88.5 -63t113.5 -23zM371 902h91l112 -144h-81l-79 102l-78 -102h-76z" />
    <glyph glyph-name="Otilde" unicode="&#xd5;" horiz-adv-x="834" 
d="M417 -18q-81 0 -148.5 28t-117 77.5t-77 118t-27.5 148.5t27.5 148.5t77 118t117 77.5t148.5 28t148.5 -28t117 -77.5t77 -118t27.5 -148.5t-27.5 -148.5t-77 -118t-117 -77.5t-148.5 -28zM417 60q62 0 113.5 23t88.5 63t57.5 93.5t20.5 114.5t-20.5 114.5t-57.5 93.5
t-88.5 63t-113.5 23t-113.5 -23t-88.5 -63t-57.5 -93.5t-20.5 -114.5t20.5 -114.5t57.5 -93.5t88.5 -63t113.5 -23zM250 770q3 19 10.5 38t20 33.5t29.5 23.5t40 9t43.5 -7.5t40.5 -15.5q15 -6 26.5 -11.5t27.5 -5.5q20 0 31.5 13t16.5 31h48q-3 -19 -9.5 -37.5t-18 -33.5
t-27.5 -24t-38 -9q-21 0 -41.5 6.5t-39.5 14.5q-15 6 -32 12.5t-34 6.5q-19 0 -30 -13.5t-16 -30.5h-48z" />
    <glyph glyph-name="Odieresis" unicode="&#xd6;" horiz-adv-x="834" 
d="M417 -18q-81 0 -148.5 28t-117 77.5t-77 118t-27.5 148.5t27.5 148.5t77 118t117 77.5t148.5 28t148.5 -28t117 -77.5t77 -118t27.5 -148.5t-27.5 -148.5t-77 -118t-117 -77.5t-148.5 -28zM417 60q62 0 113.5 23t88.5 63t57.5 93.5t20.5 114.5t-20.5 114.5t-57.5 93.5
t-88.5 63t-113.5 23t-113.5 -23t-88.5 -63t-57.5 -93.5t-20.5 -114.5t20.5 -114.5t57.5 -93.5t88.5 -63t113.5 -23zM318 878q23 0 38.5 -16t15.5 -38q0 -23 -15.5 -38.5t-38.5 -15.5t-38.5 15.5t-15.5 38.5q0 22 15.5 38t38.5 16zM516 878q23 0 38.5 -16t15.5 -38
q0 -23 -15.5 -38.5t-38.5 -15.5t-38.5 15.5t-15.5 38.5q0 22 15.5 38t38.5 16z" />
    <glyph glyph-name="multiply" unicode="&#xd7;" horiz-adv-x="666" 
d="M333 351l193 193l48 -47l-194 -194l194 -192l-48 -49l-193 194l-193 -194l-48 47l193 194l-193 192l49 49z" />
    <glyph glyph-name="Oslash" unicode="&#xd8;" horiz-adv-x="834" 
d="M239 124q35 -30 79.5 -47t98.5 -17q62 0 113.5 23t88.5 63t57.5 93.5t20.5 114.5q0 57 -17.5 107t-49.5 89zM590 589q-35 28 -78.5 43.5t-94.5 15.5q-62 0 -113.5 -23t-88.5 -63t-57.5 -93.5t-20.5 -114.5q0 -55 16.5 -103.5t46.5 -86.5zM141 99q-45 51 -69.5 115
t-24.5 140q0 80 27.5 148.5t77 118t117 77.5t148.5 28q67 0 124.5 -19.5t105.5 -55.5l79 87l42 -38l-79 -86q46 -49 72 -115.5t26 -144.5q0 -80 -27.5 -148.5t-77 -118t-117 -77.5t-148.5 -28q-70 0 -129 20.5t-107 58.5l-81 -88l-40 38z" />
    <glyph glyph-name="Ugrave" unicode="&#xd9;" horiz-adv-x="704" 
d="M619 270q0 -58 -14.5 -110t-46 -91.5t-82.5 -63t-124 -23.5t-124 23.5t-82.5 63t-46 91.5t-14.5 110v438h84v-426q0 -43 9 -83t30 -71t56 -49.5t88 -18.5q52 0 87.5 18.5t56.5 49.5t30 71t9 83v426h84v-438zM421 758h-71l-143 144h110z" />
    <glyph glyph-name="Uacute" unicode="&#xda;" horiz-adv-x="704" 
d="M619 270q0 -58 -14.5 -110t-46 -91.5t-82.5 -63t-124 -23.5t-124 23.5t-82.5 63t-46 91.5t-14.5 110v438h84v-426q0 -43 9 -83t30 -71t56 -49.5t88 -18.5q52 0 87.5 18.5t56.5 49.5t30 71t9 83v426h84v-438zM387 902h110l-143 -144h-71z" />
    <glyph glyph-name="Ucircumflex" unicode="&#xdb;" horiz-adv-x="704" 
d="M619 270q0 -58 -14.5 -110t-46 -91.5t-82.5 -63t-124 -23.5t-124 23.5t-82.5 63t-46 91.5t-14.5 110v438h84v-426q0 -43 9 -83t30 -71t56 -49.5t88 -18.5q52 0 87.5 18.5t56.5 49.5t30 71t9 83v426h84v-438zM306 902h91l112 -144h-81l-79 102l-78 -102h-76z" />
    <glyph glyph-name="Udieresis" unicode="&#xdc;" horiz-adv-x="704" 
d="M619 270q0 -58 -14.5 -110t-46 -91.5t-82.5 -63t-124 -23.5t-124 23.5t-82.5 63t-46 91.5t-14.5 110v438h84v-426q0 -43 9 -83t30 -71t56 -49.5t88 -18.5q52 0 87.5 18.5t56.5 49.5t30 71t9 83v426h84v-438zM253 878q23 0 38.5 -16t15.5 -38q0 -23 -15.5 -38.5
t-38.5 -15.5t-38.5 15.5t-15.5 38.5q0 22 15.5 38t38.5 16zM451 878q23 0 38.5 -16t15.5 -38q0 -23 -15.5 -38.5t-38.5 -15.5t-38.5 15.5t-15.5 38.5q0 22 15.5 38t38.5 16z" />
    <glyph glyph-name="Yacute" unicode="&#xdd;" horiz-adv-x="594" 
d="M255 305l-264 403h107l199 -320l205 320h101l-264 -403v-305h-84v305zM332 902h110l-143 -144h-71z" />
    <glyph glyph-name="Thorn" unicode="&#xde;" horiz-adv-x="593" 
d="M88 708h84v-125h126q49 0 93.5 -9.5t79 -32t55 -60t20.5 -92.5q0 -58 -22 -96t-56.5 -60t-75.5 -31t-78 -9h-142v-193h-84v708zM172 271h142q63 0 102.5 28.5t39.5 88.5t-39.5 88.5t-102.5 28.5h-142v-234z" />
    <glyph glyph-name="germandbls" unicode="&#xdf;" horiz-adv-x="593" 
d="M74 540q0 46 12 87t38.5 72.5t68 50t100.5 18.5q40 0 76 -12t62.5 -34.5t42 -55.5t15.5 -76q0 -57 -28 -98t-82 -60v-2q42 -4 73.5 -23t53 -47.5t32.5 -65t11 -76.5q0 -53 -18 -95.5t-50 -72.5t-76 -46t-95 -16q-16 0 -31.5 2t-30.5 7v71q24 -8 52 -8q37 0 67.5 12
t52.5 33.5t33.5 52t11.5 67.5q0 40 -13 71.5t-36.5 53.5t-56 33.5t-71.5 11.5h-23v66h22q54 0 89 31.5t35 88.5q0 54 -35 84.5t-87 30.5q-40 0 -66.5 -13.5t-42 -36t-22 -52t-6.5 -61.5v-533h-78v540z" />
    <glyph glyph-name="agrave" unicode="&#xe0;" horiz-adv-x="519" 
d="M68 408q36 37 85.5 54.5t100.5 17.5q105 0 150.5 -49t45.5 -149v-201q0 -20 2 -41.5t5 -39.5h-75q-4 16 -4.5 35.5t-0.5 34.5h-2q-23 -36 -61.5 -59t-92.5 -23q-36 0 -67.5 9t-55 26.5t-37.5 43.5t-14 60q0 58 30 91t74.5 49t96 20t94.5 4h30v14q0 51 -30.5 77t-85.5 26
q-38 0 -74.5 -12.5t-64.5 -38.5zM294 225q-75 0 -119 -21t-44 -69q0 -44 29.5 -62.5t73.5 -18.5q34 0 59.5 11.5t42.5 30.5t26 44.5t10 54.5v30h-78zM329 580h-71l-143 144h110z" />
    <glyph glyph-name="aacute" unicode="&#xe1;" horiz-adv-x="519" 
d="M68 408q36 37 85.5 54.5t100.5 17.5q105 0 150.5 -49t45.5 -149v-201q0 -20 2 -41.5t5 -39.5h-75q-4 16 -4.5 35.5t-0.5 34.5h-2q-23 -36 -61.5 -59t-92.5 -23q-36 0 -67.5 9t-55 26.5t-37.5 43.5t-14 60q0 58 30 91t74.5 49t96 20t94.5 4h30v14q0 51 -30.5 77t-85.5 26
q-38 0 -74.5 -12.5t-64.5 -38.5zM294 225q-75 0 -119 -21t-44 -69q0 -44 29.5 -62.5t73.5 -18.5q34 0 59.5 11.5t42.5 30.5t26 44.5t10 54.5v30h-78zM295 724h110l-143 -144h-71z" />
    <glyph glyph-name="acircumflex" unicode="&#xe2;" horiz-adv-x="519" 
d="M68 408q36 37 85.5 54.5t100.5 17.5q105 0 150.5 -49t45.5 -149v-201q0 -20 2 -41.5t5 -39.5h-75q-4 16 -4.5 35.5t-0.5 34.5h-2q-23 -36 -61.5 -59t-92.5 -23q-36 0 -67.5 9t-55 26.5t-37.5 43.5t-14 60q0 58 30 91t74.5 49t96 20t94.5 4h30v14q0 51 -30.5 77t-85.5 26
q-38 0 -74.5 -12.5t-64.5 -38.5zM294 225q-75 0 -119 -21t-44 -69q0 -44 29.5 -62.5t73.5 -18.5q34 0 59.5 11.5t42.5 30.5t26 44.5t10 54.5v30h-78zM214 724h91l112 -144h-81l-79 102l-78 -102h-76z" />
    <glyph glyph-name="atilde" unicode="&#xe3;" horiz-adv-x="519" 
d="M68 408q36 37 85.5 54.5t100.5 17.5q105 0 150.5 -49t45.5 -149v-201q0 -20 2 -41.5t5 -39.5h-75q-4 16 -4.5 35.5t-0.5 34.5h-2q-23 -36 -61.5 -59t-92.5 -23q-36 0 -67.5 9t-55 26.5t-37.5 43.5t-14 60q0 58 30 91t74.5 49t96 20t94.5 4h30v14q0 51 -30.5 77t-85.5 26
q-38 0 -74.5 -12.5t-64.5 -38.5zM294 225q-75 0 -119 -21t-44 -69q0 -44 29.5 -62.5t73.5 -18.5q34 0 59.5 11.5t42.5 30.5t26 44.5t10 54.5v30h-78zM93 592q3 19 10.5 38t20 33.5t29.5 23.5t40 9t43.5 -7.5t40.5 -15.5q15 -6 26.5 -11.5t27.5 -5.5q20 0 31.5 13t16.5 31h48
q-3 -19 -9.5 -37.5t-18 -33.5t-27.5 -24t-38 -9q-21 0 -41.5 6.5t-39.5 14.5q-15 6 -32 12.5t-34 6.5q-19 0 -30 -13.5t-16 -30.5h-48z" />
    <glyph glyph-name="adieresis" unicode="&#xe4;" horiz-adv-x="519" 
d="M68 408q36 37 85.5 54.5t100.5 17.5q105 0 150.5 -49t45.5 -149v-201q0 -20 2 -41.5t5 -39.5h-75q-4 16 -4.5 35.5t-0.5 34.5h-2q-23 -36 -61.5 -59t-92.5 -23q-36 0 -67.5 9t-55 26.5t-37.5 43.5t-14 60q0 58 30 91t74.5 49t96 20t94.5 4h30v14q0 51 -30.5 77t-85.5 26
q-38 0 -74.5 -12.5t-64.5 -38.5zM294 225q-75 0 -119 -21t-44 -69q0 -44 29.5 -62.5t73.5 -18.5q34 0 59.5 11.5t42.5 30.5t26 44.5t10 54.5v30h-78zM161 700q23 0 38.5 -16t15.5 -38q0 -23 -15.5 -38.5t-38.5 -15.5t-38.5 15.5t-15.5 38.5q0 22 15.5 38t38.5 16zM359 700
q23 0 38.5 -16t15.5 -38q0 -23 -15.5 -38.5t-38.5 -15.5t-38.5 15.5t-15.5 38.5q0 22 15.5 38t38.5 16z" />
    <glyph glyph-name="aring" unicode="&#xe5;" horiz-adv-x="519" 
d="M68 408q36 37 85.5 54.5t100.5 17.5q105 0 150.5 -49t45.5 -149v-201q0 -20 2 -41.5t5 -39.5h-75q-4 16 -4.5 35.5t-0.5 34.5h-2q-23 -36 -61.5 -59t-92.5 -23q-36 0 -67.5 9t-55 26.5t-37.5 43.5t-14 60q0 58 30 91t74.5 49t96 20t94.5 4h30v14q0 51 -30.5 77t-85.5 26
q-38 0 -74.5 -12.5t-64.5 -38.5zM294 225q-75 0 -119 -21t-44 -69q0 -44 29.5 -62.5t73.5 -18.5q34 0 59.5 11.5t42.5 30.5t26 44.5t10 54.5v30h-78zM161 661q0 20 7.5 38t20.5 31.5t31.5 21.5t39.5 8q45 0 72 -29.5t27 -69.5q0 -42 -28 -70.5t-71 -28.5t-71 28.5t-28 70.5z
M203 661q0 -25 17.5 -41t39.5 -16t39.5 16t17.5 41q0 24 -17.5 40.5t-39.5 16.5t-39.5 -16.5t-17.5 -40.5z" />
    <glyph glyph-name="ae" unicode="&#xe6;" horiz-adv-x="852" 
d="M793 85q-42 -54 -92 -75.5t-116 -21.5q-34 0 -62.5 9t-51 23.5t-39 32.5t-25.5 36q-28 -57 -77.5 -79t-109.5 -22q-30 0 -61 8t-56 25t-40.5 43.5t-15.5 64.5q0 48 22.5 77t57 44.5t75.5 20.5t79 5h96v12q0 51 -28.5 85.5t-88.5 34.5q-43 0 -74 -11.5t-63 -34.5l-50 52
q38 33 87 49.5t100 16.5q48 0 92 -17.5t70 -61.5q42 43 82.5 61t83.5 18q49 0 90 -16.5t70.5 -48t45.5 -77t16 -103.5v-25h-361q0 -31 10.5 -58t28.5 -47.5t43 -32.5t54 -12q51 0 86 18t63 53zM260 210q-21 0 -43.5 -3.5t-41.5 -12t-31.5 -23.5t-12.5 -39q0 -20 9.5 -33.5
t25.5 -22t35 -12.5t39 -4q61 0 99 38t38 99v13h-117zM726 276q-2 60 -38.5 96t-102.5 36q-29 0 -53.5 -11.5t-42.5 -30t-28.5 -42.5t-11.5 -48h277z" />
    <glyph glyph-name="ccedilla" unicode="&#xe7;" horiz-adv-x="482" 
d="M407 351q-25 30 -54 43.5t-64 13.5q-39 0 -69 -13.5t-49.5 -37.5t-29.5 -55.5t-10 -67.5t11.5 -67.5t32 -55.5t49.5 -37.5t65 -13.5q77 0 119 58l58 -55q-31 -35 -72 -53t-87 -20l-38 -54q7 1 15 2.5t20 1.5q13 0 27 -4t26 -12.5t19.5 -21.5t7.5 -31q0 -24 -10.5 -41
t-27.5 -27.5t-38 -15t-41 -4.5q-26 0 -51 5t-48 16l17 37q33 -16 72 -16q10 0 20.5 2t19.5 6.5t15 12.5t6 20q0 21 -17.5 29.5t-34.5 8.5q-10 0 -20 -2.5t-19 -5.5l-20 19l55 76q-49 4 -88.5 23.5t-67.5 51.5t-43.5 74.5t-15.5 93.5q0 53 17.5 98t49.5 78t76.5 51.5
t98.5 18.5q52 0 98.5 -18t81.5 -56z" />
    <glyph glyph-name="egrave" unicode="&#xe8;" 
d="M492 85q-42 -54 -92 -75.5t-116 -21.5q-55 0 -99 19.5t-74.5 52.5t-47 78t-16.5 96q0 54 18 99.5t50 78t76 50.5t96 18q49 0 90 -16.5t70.5 -48t45.5 -77t16 -103.5v-25h-378q2 -30 14.5 -57.5t32.5 -48t47 -32.5t59 -12q51 0 86 18t63 53zM425 276q-2 60 -38.5 96
t-102.5 36t-105.5 -36t-47.5 -96h294zM347 580h-71l-143 144h110z" />
    <glyph glyph-name="eacute" unicode="&#xe9;" 
d="M492 85q-42 -54 -92 -75.5t-116 -21.5q-55 0 -99 19.5t-74.5 52.5t-47 78t-16.5 96q0 54 18 99.5t50 78t76 50.5t96 18q49 0 90 -16.5t70.5 -48t45.5 -77t16 -103.5v-25h-378q2 -30 14.5 -57.5t32.5 -48t47 -32.5t59 -12q51 0 86 18t63 53zM425 276q-2 60 -38.5 96
t-102.5 36t-105.5 -36t-47.5 -96h294zM313 724h110l-143 -144h-71z" />
    <glyph glyph-name="ecircumflex" unicode="&#xea;" 
d="M492 85q-42 -54 -92 -75.5t-116 -21.5q-55 0 -99 19.5t-74.5 52.5t-47 78t-16.5 96q0 54 18 99.5t50 78t76 50.5t96 18q49 0 90 -16.5t70.5 -48t45.5 -77t16 -103.5v-25h-378q2 -30 14.5 -57.5t32.5 -48t47 -32.5t59 -12q51 0 86 18t63 53zM425 276q-2 60 -38.5 96
t-102.5 36t-105.5 -36t-47.5 -96h294zM232 724h91l112 -144h-81l-79 102l-78 -102h-76z" />
    <glyph glyph-name="edieresis" unicode="&#xeb;" 
d="M492 85q-42 -54 -92 -75.5t-116 -21.5q-55 0 -99 19.5t-74.5 52.5t-47 78t-16.5 96q0 54 18 99.5t50 78t76 50.5t96 18q49 0 90 -16.5t70.5 -48t45.5 -77t16 -103.5v-25h-378q2 -30 14.5 -57.5t32.5 -48t47 -32.5t59 -12q51 0 86 18t63 53zM425 276q-2 60 -38.5 96
t-102.5 36t-105.5 -36t-47.5 -96h294zM179 700q23 0 38.5 -16t15.5 -38q0 -23 -15.5 -38.5t-38.5 -15.5t-38.5 15.5t-15.5 38.5q0 22 15.5 38t38.5 16zM377 700q23 0 38.5 -16t15.5 -38q0 -23 -15.5 -38.5t-38.5 -15.5t-38.5 15.5t-15.5 38.5q0 22 15.5 38t38.5 16z" />
    <glyph glyph-name="igrave" unicode="&#xec;" horiz-adv-x="240" 
d="M81 468h78v-468h-78v468zM189 580h-71l-143 144h110z" />
    <glyph glyph-name="iacute" unicode="&#xed;" horiz-adv-x="240" 
d="M81 468h78v-468h-78v468zM155 724h110l-143 -144h-71z" />
    <glyph glyph-name="icircumflex" unicode="&#xee;" horiz-adv-x="240" 
d="M81 468h78v-468h-78v468zM74 724h91l112 -144h-81l-79 102l-78 -102h-76z" />
    <glyph glyph-name="idieresis" unicode="&#xef;" horiz-adv-x="240" 
d="M81 468h78v-468h-78v468zM21 700q23 0 38.5 -16t15.5 -38q0 -23 -15.5 -38.5t-38.5 -15.5t-38.5 15.5t-15.5 38.5q0 22 15.5 38t38.5 16zM219 700q23 0 38.5 -16t15.5 -38q0 -23 -15.5 -38.5t-38.5 -15.5t-38.5 15.5t-15.5 38.5q0 22 15.5 38t38.5 16z" />
    <glyph glyph-name="eth" unicode="&#xf0;" horiz-adv-x="594" 
d="M234 663q-20 20 -43 39.5t-45 36.5l69 40q22 -18 46.5 -39t44.5 -41l107 54l46 -39l-111 -56q40 -38 76 -79t63.5 -88.5t43.5 -103t16 -122.5q0 -61 -15.5 -112t-46.5 -87.5t-78 -57t-110 -20.5q-54 0 -100 18t-79 50.5t-52 77.5t-19 100t19 100t52 77.5t79 50.5t100 18
q38 0 71.5 -12t58.5 -37l1 2q-28 52 -67 98.5t-84 91.5l-107 -54l-42 41zM131 234q0 -37 11.5 -68.5t33.5 -55t52.5 -37t68.5 -13.5t68.5 13.5t52.5 37t33.5 55t11.5 68.5t-11.5 68.5t-33.5 55t-52.5 37t-68.5 13.5t-68.5 -13.5t-52.5 -37t-33.5 -55t-11.5 -68.5z" />
    <glyph glyph-name="ntilde" unicode="&#xf1;" 
d="M74 357q0 32 -2 60t-2 51h74q0 -19 1 -38t1 -39h2q8 17 22.5 33t34.5 28.5t45 20t54 7.5q46 0 79.5 -14t55.5 -39t32.5 -60.5t10.5 -77.5v-289h-78v281q0 60 -26 93.5t-81 33.5q-38 0 -65.5 -13t-45 -37t-26 -57t-8.5 -73v-228h-78v357zM111 592q3 19 10.5 38t20 33.5
t29.5 23.5t40 9t43.5 -7.5t40.5 -15.5q15 -6 26.5 -11.5t27.5 -5.5q20 0 31.5 13t16.5 31h48q-3 -19 -9.5 -37.5t-18 -33.5t-27.5 -24t-38 -9q-21 0 -41.5 6.5t-39.5 14.5q-15 6 -32 12.5t-34 6.5q-19 0 -30 -13.5t-16 -30.5h-48z" />
    <glyph glyph-name="ograve" unicode="&#xf2;" horiz-adv-x="594" 
d="M47 234q0 55 19 100t52 77.5t79 50.5t100 18t100 -18t79 -50.5t52 -77.5t19 -100t-19 -100t-52 -77.5t-79 -50.5t-100 -18t-100 18t-79 50.5t-52 77.5t-19 100zM131 234q0 -37 11.5 -68.5t33.5 -55t52.5 -37t68.5 -13.5t68.5 13.5t52.5 37t33.5 55t11.5 68.5t-11.5 68.5
t-33.5 55t-52.5 37t-68.5 13.5t-68.5 -13.5t-52.5 -37t-33.5 -55t-11.5 -68.5zM366 580h-71l-143 144h110z" />
    <glyph glyph-name="oacute" unicode="&#xf3;" horiz-adv-x="594" 
d="M47 234q0 55 19 100t52 77.5t79 50.5t100 18t100 -18t79 -50.5t52 -77.5t19 -100t-19 -100t-52 -77.5t-79 -50.5t-100 -18t-100 18t-79 50.5t-52 77.5t-19 100zM131 234q0 -37 11.5 -68.5t33.5 -55t52.5 -37t68.5 -13.5t68.5 13.5t52.5 37t33.5 55t11.5 68.5t-11.5 68.5
t-33.5 55t-52.5 37t-68.5 13.5t-68.5 -13.5t-52.5 -37t-33.5 -55t-11.5 -68.5zM332 724h110l-143 -144h-71z" />
    <glyph glyph-name="ocircumflex" unicode="&#xf4;" horiz-adv-x="594" 
d="M47 234q0 55 19 100t52 77.5t79 50.5t100 18t100 -18t79 -50.5t52 -77.5t19 -100t-19 -100t-52 -77.5t-79 -50.5t-100 -18t-100 18t-79 50.5t-52 77.5t-19 100zM131 234q0 -37 11.5 -68.5t33.5 -55t52.5 -37t68.5 -13.5t68.5 13.5t52.5 37t33.5 55t11.5 68.5t-11.5 68.5
t-33.5 55t-52.5 37t-68.5 13.5t-68.5 -13.5t-52.5 -37t-33.5 -55t-11.5 -68.5zM251 724h91l112 -144h-81l-79 102l-78 -102h-76z" />
    <glyph glyph-name="otilde" unicode="&#xf5;" horiz-adv-x="594" 
d="M47 234q0 55 19 100t52 77.5t79 50.5t100 18t100 -18t79 -50.5t52 -77.5t19 -100t-19 -100t-52 -77.5t-79 -50.5t-100 -18t-100 18t-79 50.5t-52 77.5t-19 100zM131 234q0 -37 11.5 -68.5t33.5 -55t52.5 -37t68.5 -13.5t68.5 13.5t52.5 37t33.5 55t11.5 68.5t-11.5 68.5
t-33.5 55t-52.5 37t-68.5 13.5t-68.5 -13.5t-52.5 -37t-33.5 -55t-11.5 -68.5zM130 592q3 19 10.5 38t20 33.5t29.5 23.5t40 9t43.5 -7.5t40.5 -15.5q15 -6 26.5 -11.5t27.5 -5.5q20 0 31.5 13t16.5 31h48q-3 -19 -9.5 -37.5t-18 -33.5t-27.5 -24t-38 -9q-21 0 -41.5 6.5
t-39.5 14.5q-15 6 -32 12.5t-34 6.5q-19 0 -30 -13.5t-16 -30.5h-48z" />
    <glyph glyph-name="odieresis" unicode="&#xf6;" horiz-adv-x="594" 
d="M47 234q0 55 19 100t52 77.5t79 50.5t100 18t100 -18t79 -50.5t52 -77.5t19 -100t-19 -100t-52 -77.5t-79 -50.5t-100 -18t-100 18t-79 50.5t-52 77.5t-19 100zM131 234q0 -37 11.5 -68.5t33.5 -55t52.5 -37t68.5 -13.5t68.5 13.5t52.5 37t33.5 55t11.5 68.5t-11.5 68.5
t-33.5 55t-52.5 37t-68.5 13.5t-68.5 -13.5t-52.5 -37t-33.5 -55t-11.5 -68.5zM198 700q23 0 38.5 -16t15.5 -38q0 -23 -15.5 -38.5t-38.5 -15.5t-38.5 15.5t-15.5 38.5q0 22 15.5 38t38.5 16zM396 700q23 0 38.5 -16t15.5 -38q0 -23 -15.5 -38.5t-38.5 -15.5t-38.5 15.5
t-15.5 38.5q0 22 15.5 38t38.5 16z" />
    <glyph glyph-name="divide" unicode="&#xf7;" horiz-adv-x="666" 
d="M72 336h522v-66h-522v66zM276 468q0 24 17 40.5t40 16.5t40 -17t17 -40q0 -24 -17 -40.5t-40 -16.5t-40 17t-17 40zM276 138q0 24 17 40.5t40 16.5t40 -17t17 -40q0 -24 -17 -40.5t-40 -16.5t-40 17t-17 40z" />
    <glyph glyph-name="oslash" unicode="&#xf8;" horiz-adv-x="594" 
d="M401 373q-41 35 -104 35q-38 0 -68.5 -13.5t-52.5 -37t-33.5 -55t-11.5 -68.5q0 -61 31 -104zM193 95q41 -35 104 -35q38 0 68.5 13.5t52.5 37t33.5 55t11.5 68.5q0 61 -31 104zM105 72q-28 31 -43 72t-15 90q0 55 19 100t52 77.5t79 50.5t100 18q48 0 87.5 -13.5
t71.5 -37.5l67 69l34 -32l-67 -69q27 -32 42 -73t15 -90q0 -55 -19 -100t-52 -77.5t-79 -50.5t-100 -18q-48 0 -87.5 13.5t-70.5 38.5l-68 -70l-34 32z" />
    <glyph glyph-name="ugrave" unicode="&#xf9;" 
d="M482 111q0 -32 2 -60t2 -51h-74q0 19 -1 38t-1 39h-2q-8 -17 -22.5 -33t-34.5 -28.5t-45 -20t-54 -7.5q-46 0 -79.5 14t-55.5 39t-32.5 60.5t-10.5 77.5v289h78v-281q0 -60 26 -93.5t81 -33.5q38 0 65.5 13t45 37t26 57t8.5 73v228h78v-357zM347 580h-71l-143 144h110z
" />
    <glyph glyph-name="uacute" unicode="&#xfa;" 
d="M482 111q0 -32 2 -60t2 -51h-74q0 19 -1 38t-1 39h-2q-8 -17 -22.5 -33t-34.5 -28.5t-45 -20t-54 -7.5q-46 0 -79.5 14t-55.5 39t-32.5 60.5t-10.5 77.5v289h78v-281q0 -60 26 -93.5t81 -33.5q38 0 65.5 13t45 37t26 57t8.5 73v228h78v-357zM313 724h110l-143 -144h-71z
" />
    <glyph glyph-name="ucircumflex" unicode="&#xfb;" 
d="M482 111q0 -32 2 -60t2 -51h-74q0 19 -1 38t-1 39h-2q-8 -17 -22.5 -33t-34.5 -28.5t-45 -20t-54 -7.5q-46 0 -79.5 14t-55.5 39t-32.5 60.5t-10.5 77.5v289h78v-281q0 -60 26 -93.5t81 -33.5q38 0 65.5 13t45 37t26 57t8.5 73v228h78v-357zM232 724h91l112 -144h-81
l-79 102l-78 -102h-76z" />
    <glyph glyph-name="udieresis" unicode="&#xfc;" 
d="M482 111q0 -32 2 -60t2 -51h-74q0 19 -1 38t-1 39h-2q-8 -17 -22.5 -33t-34.5 -28.5t-45 -20t-54 -7.5q-46 0 -79.5 14t-55.5 39t-32.5 60.5t-10.5 77.5v289h78v-281q0 -60 26 -93.5t81 -33.5q38 0 65.5 13t45 37t26 57t8.5 73v228h78v-357zM179 700q23 0 38.5 -16
t15.5 -38q0 -23 -15.5 -38.5t-38.5 -15.5t-38.5 15.5t-15.5 38.5q0 22 15.5 38t38.5 16zM377 700q23 0 38.5 -16t15.5 -38q0 -23 -15.5 -38.5t-38.5 -15.5t-38.5 15.5t-15.5 38.5q0 22 15.5 38t38.5 16z" />
    <glyph glyph-name="yacute" unicode="&#xfd;" horiz-adv-x="482" 
d="M246 -107q-12 -30 -24.5 -54.5t-30 -42t-42 -27t-59.5 -9.5q-17 0 -35.5 2t-34.5 10l10 68q12 -5 25 -6.5t30 -1.5q38 0 56 21t31 56l32 88l-194 471h91l145 -367h2l139 367h85zM276 724h110l-143 -144h-71z" />
    <glyph glyph-name="thorn" unicode="&#xfe;" horiz-adv-x="611" 
d="M70 756h78v-356h2q32 38 74.5 59t93.5 21q55 0 100.5 -18.5t77.5 -51.5t50 -78t18 -98t-18 -98t-49.5 -78t-74.5 -51.5t-92 -18.5q-63 0 -110.5 27.5t-69.5 67.5h-2v-311h-78v984zM148 234q0 -37 11.5 -68.5t33.5 -55t52.5 -37t68.5 -13.5t68.5 13.5t52.5 37t33.5 55
t11.5 68.5t-11.5 68.5t-33.5 55t-52.5 37t-68.5 13.5t-68.5 -13.5t-52.5 -37t-33.5 -55t-11.5 -68.5z" />
    <glyph glyph-name="ydieresis" unicode="&#xff;" horiz-adv-x="482" 
d="M246 -107q-12 -30 -24.5 -54.5t-30 -42t-42 -27t-59.5 -9.5q-17 0 -35.5 2t-34.5 10l10 68q12 -5 25 -6.5t30 -1.5q38 0 56 21t31 56l32 88l-194 471h91l145 -367h2l139 367h85zM142 700q23 0 38.5 -16t15.5 -38q0 -23 -15.5 -38.5t-38.5 -15.5t-38.5 15.5t-15.5 38.5
q0 22 15.5 38t38.5 16zM340 700q23 0 38.5 -16t15.5 -38q0 -23 -15.5 -38.5t-38.5 -15.5t-38.5 15.5t-15.5 38.5q0 22 15.5 38t38.5 16z" />
    <glyph glyph-name="dotlessi" unicode="&#x131;" horiz-adv-x="240" 
d="M81 468h78v-468h-78v468z" />
    <glyph glyph-name="Lslash" unicode="&#x141;" horiz-adv-x="500" 
d="M88 221l-78 -67v79l78 67v408h84v-336l216 186v-79l-216 -186v-215h324v-78h-408v221z" />
    <glyph glyph-name="lslash" unicode="&#x142;" horiz-adv-x="240" 
d="M81 308l-81 -81v82l81 81v366h78v-288l81 81v-81l-81 -81v-387h-78v308z" />
    <glyph glyph-name="OE" unicode="&#x152;" horiz-adv-x="963" 
d="M602 408h282v-78h-282v-252h306v-78h-460q-98 0 -171.5 29.5t-122.5 78.5t-74 113t-25 133t25 133t74 113t122.5 78.5t171.5 29.5h454v-78h-300v-222zM518 630h-66q-80 0 -137.5 -24t-95.5 -63t-56 -88.5t-18 -100.5t18 -100.5t56 -88.5t95.5 -63t137.5 -24h66v552z" />
    <glyph glyph-name="oe" unicode="&#x153;" horiz-adv-x="907" 
d="M510 210q0 -31 10.5 -58t28.5 -47.5t43 -32.5t54 -12q51 0 86 18t63 53l59 -46q-42 -54 -92 -75.5t-116 -21.5q-51 0 -97 22.5t-77 73.5q-36 -48 -82.5 -72t-109.5 -24q-56 0 -101 17.5t-76.5 50t-49 77.5t-17.5 101q0 53 17.5 98t49.5 78t76.5 51.5t97.5 18.5
q63 0 110 -21.5t85 -72.5q73 94 177 94q49 0 90 -16.5t70.5 -48t45.5 -77t16 -103.5v-25h-361zM120 234q0 -34 9.5 -65.5t29 -55.5t49 -38.5t68.5 -14.5q40 0 70 13.5t50.5 37.5t31 55.5t10.5 67.5q0 34 -10 65.5t-29.5 55.5t-49.5 38.5t-69 14.5t-69 -14t-50.5 -37.5
t-30.5 -55t-10 -67.5zM787 276q-2 60 -38.5 96t-102.5 36q-29 0 -53.5 -11.5t-42.5 -30t-28.5 -42.5t-11.5 -48h277z" />
    <glyph glyph-name="Scaron" unicode="&#x160;" 
d="M424 583q-21 34 -56 49.5t-73 15.5q-28 0 -55 -7t-48.5 -21t-34.5 -37t-13 -54q0 -24 7.5 -42.5t24.5 -33.5t46 -28t71 -26q41 -13 79.5 -28t68 -38t47 -57.5t17.5 -86.5q0 -53 -21 -92t-55.5 -64.5t-79.5 -38t-93 -12.5q-30 0 -61.5 5.5t-60 17t-53.5 30t-43 45.5l72 59
q23 -39 64 -59t87 -20q27 0 54.5 8t49.5 23.5t36 38.5t14 53q0 33 -11 53.5t-34 35.5t-58 27t-82 28q-38 12 -70 27.5t-55.5 38t-37 54t-13.5 75.5q0 51 20 89t54 63.5t77 38.5t90 13q60 0 109.5 -18.5t88.5 -64.5zM324 758h-91l-111 144h81l78 -102l77 102h76z" />
    <glyph glyph-name="scaron" unicode="&#x161;" horiz-adv-x="426" 
d="M84 123q23 -29 50.5 -46t69.5 -17q18 0 36.5 4t33.5 13t24 22.5t9 32.5t-8.5 31t-22.5 20.5t-32 13.5t-37 9q-33 7 -63 16t-52.5 23.5t-36 37.5t-13.5 59q0 34 15 60t40 43t56 26t64 9q51 0 93 -20t66 -65l-65 -43q-15 25 -39.5 40.5t-59.5 15.5q-16 0 -32.5 -4
t-29.5 -12t-21.5 -20.5t-8.5 -28.5q0 -14 9.5 -25t26 -19t38 -14t44.5 -10q31 -6 59 -15.5t49 -25.5t33 -40t12 -59q0 -40 -16 -68t-42.5 -45.5t-60 -25.5t-68.5 -8q-60 0 -103.5 18.5t-78.5 68.5zM259 580h-91l-111 144h81l78 -102l77 102h76z" />
    <glyph glyph-name="Ydieresis" unicode="&#x178;" horiz-adv-x="594" 
d="M255 305l-264 403h107l199 -320l205 320h101l-264 -403v-305h-84v305zM198 878q23 0 38.5 -16t15.5 -38q0 -23 -15.5 -38.5t-38.5 -15.5t-38.5 15.5t-15.5 38.5q0 22 15.5 38t38.5 16zM396 878q23 0 38.5 -16t15.5 -38q0 -23 -15.5 -38.5t-38.5 -15.5t-38.5 15.5
t-15.5 38.5q0 22 15.5 38t38.5 16z" />
    <glyph glyph-name="Zcaron" unicode="&#x17d;" horiz-adv-x="574" 
d="M29 75l409 555h-403v78h505v-72l-409 -558h414v-78h-516v75zM333 758h-91l-111 144h81l78 -102l77 102h76z" />
    <glyph glyph-name="zcaron" unicode="&#x17e;" horiz-adv-x="444" 
d="M30 61l275 341h-263v66h365v-60l-275 -342h282v-66h-384v61zM268 580h-91l-111 144h81l78 -102l77 102h76z" />
    <glyph glyph-name="florin" unicode="&#x192;" 
d="M431 359h-126l-65 -344q-7 -35 -18.5 -64t-30.5 -50t-47 -33t-68 -12q-49 0 -86 24l36 63q11 -8 24.5 -11.5t27.5 -3.5q24 0 39 10t24 25.5t13.5 34.5t7.5 37l60 324h-108v66h121l21 110q7 36 17.5 69.5t28.5 59t46 41t72 15.5q54 0 100 -28l-37 -62q-13 8 -27.5 13
t-29.5 5q-24 0 -39.5 -10.5t-25 -27t-14.5 -36.5t-9 -39l-21 -110h114v-66z" />
    <glyph glyph-name="circumflex" unicode="&#x2c6;" horiz-adv-x="240" 
d="M74 708h91l112 -144h-81l-79 102l-78 -102h-76z" />
    <glyph glyph-name="caron" unicode="&#x2c7;" horiz-adv-x="240" 
d="M166 564h-91l-111 144h81l78 -102l77 102h76z" />
    <glyph glyph-name="breve" unicode="&#x2d8;" horiz-adv-x="240" 
d="M16 702q8 -39 36.5 -58.5t66.5 -19.5q45 0 70 16.5t36 61.5h48q-7 -66 -48.5 -99t-105.5 -33q-63 0 -105.5 33t-46.5 99h49z" />
    <glyph glyph-name="dotaccent" unicode="&#x2d9;" horiz-adv-x="240" 
d="M120 684q23 0 38.5 -16t15.5 -38q0 -23 -15.5 -38.5t-38.5 -15.5t-38.5 15.5t-15.5 38.5q0 22 15.5 38t38.5 16z" />
    <glyph glyph-name="ring" unicode="&#x2da;" horiz-adv-x="240" 
d="M21 645q0 20 7.5 38t20.5 31.5t31.5 21.5t39.5 8q45 0 72 -29.5t27 -69.5q0 -42 -28 -70.5t-71 -28.5t-71 28.5t-28 70.5zM63 645q0 -25 17.5 -41t39.5 -16t39.5 16t17.5 41q0 24 -17.5 40.5t-39.5 16.5t-39.5 -16.5t-17.5 -40.5z" />
    <glyph glyph-name="ogonek" unicode="&#x2db;" horiz-adv-x="240" 
d="M203 -182q-19 -18 -42.5 -28.5t-49.5 -10.5q-18 0 -35 6t-30 17.5t-20.5 27t-7.5 34.5q0 21 8.5 41t21.5 38t29 32.5t32 24.5h51q-11 -8 -24.5 -20t-25 -27t-19 -32.5t-7.5 -35.5q0 -20 12 -33.5t36 -12.5q13 0 27 5.5t23 14.5z" />
    <glyph glyph-name="tilde" unicode="&#x2dc;" horiz-adv-x="240" 
d="M-47 576q3 19 10.5 38t20 33.5t29.5 23.5t40 9t43.5 -7.5t40.5 -15.5q15 -6 26.5 -11.5t27.5 -5.5q20 0 31.5 13t16.5 31h48q-3 -19 -9.5 -37.5t-18 -33.5t-27.5 -24t-38 -9q-21 0 -41.5 6.5t-39.5 14.5q-15 6 -32 12.5t-34 6.5q-19 0 -30 -13.5t-16 -30.5h-48z" />
    <glyph glyph-name="hungarumlaut" unicode="&#x2dd;" horiz-adv-x="240" 
d="M45 564h-67l100 144h96zM202 564h-68l109 144h102z" />
    <glyph glyph-name="uni2126" unicode="&#x3a9;" horiz-adv-x="744" 
d="M434 0v181q45 8 79.5 28.5t58 51.5t35 70t11.5 84q0 54 -19.5 99t-53.5 77.5t-80 50.5t-99 18t-99 -18.5t-80 -51t-53.5 -77.5t-19.5 -98q0 -44 11.5 -83.5t35 -70.5t58 -52t79.5 -28v-181h-251v58h197v82q-47 13 -83.5 40t-62 63.5t-38.5 80.5t-13 92q0 67 25.5 123
t69.5 96.5t102 63t123 22.5q64 0 122 -22.5t101.5 -63t69 -96.5t25.5 -122q0 -48 -13 -92.5t-38 -81.5t-61.5 -63.5t-84.5 -39.5v-82h197v-58h-251z" />
    <glyph glyph-name="uni2126" unicode="&#x2126;" horiz-adv-x="744" 
d="M434 0v181q45 8 79.5 28.5t58 51.5t35 70t11.5 84q0 54 -19.5 99t-53.5 77.5t-80 50.5t-99 18t-99 -18.5t-80 -51t-53.5 -77.5t-19.5 -98q0 -44 11.5 -83.5t35 -70.5t58 -52t79.5 -28v-181h-251v58h197v82q-47 13 -83.5 40t-62 63.5t-38.5 80.5t-13 92q0 67 25.5 123
t69.5 96.5t102 63t123 22.5q64 0 122 -22.5t101.5 -63t69 -96.5t25.5 -122q0 -48 -13 -92.5t-38 -81.5t-61.5 -63.5t-84.5 -39.5v-82h197v-58h-251z" />
    <glyph glyph-name="pi" unicode="&#x3c0;" horiz-adv-x="563" 
d="M540 11q-17 -8 -31.5 -12.5t-32.5 -4.5q-29 0 -45.5 9.5t-24 26t-9 37.5t-1.5 44v308h-260v-419h-64v419h-70v59h534v-59h-76v-315q0 -22 5.5 -38t32.5 -16q21 0 42 10v-49z" />
    <glyph glyph-name="uni060C" unicode="&#x60c;" horiz-adv-x="278" 
d="M134 240h77l-68 -240h-91z" />
    <glyph glyph-name="uni061B" unicode="&#x61b;" horiz-adv-x="278" 
d="M154 418h77l-68 -240h-91zM130 114q25 0 42.5 -17.5t17.5 -42.5t-18.5 -42.5t-41.5 -17.5t-41.5 17.5t-18.5 42.5t17.5 42.5t42.5 17.5z" />
    <glyph glyph-name="uni061F" unicode="&#x61f;" horiz-adv-x="422" 
d="M321 0h-73v81h73v-81zM347 539q-18 4 -38.5 7t-38.5 3q-24 0 -46.5 -6t-40 -18t-27.5 -31t-10 -46q0 -62 48.5 -92t126.5 -35v-161h-72v110q-91 17 -136.5 64t-45.5 106q0 34 12.5 68t38 60t63.5 42.5t90 16.5q23 0 45.5 -3t39.5 -6z" />
    <glyph glyph-name="uni0640" unicode="&#x640;" horiz-adv-x="122" 
d="M-7 0q-23 0 -23 18v39q0 24 23 24h136q23 0 23 -19v-38q0 -24 -23 -24h-136z" />
    <glyph glyph-name="uni0647" unicode="&#x647;" horiz-adv-x="457" 
d="M387 0h-171q-59 0 -100.5 17t-67 44t-37 61.5t-11.5 69.5q0 46 15 87.5t42 72.5t64.5 49t82.5 18q42 0 76 -14t57.5 -39t36.5 -60.5t13 -77.5v-228zM308 81v115q0 69 -29 107.5t-83 38.5q-22 0 -43 -9t-37.5 -26.5t-27 -41.5t-10.5 -54q0 -35 11 -60t30 -40.5t43 -22.5
t51 -7h95z" />
    <glyph glyph-name="uni064B" unicode="&#x64b;" horiz-adv-x="0" 
d="M-102 828q55 20 106 38t105 37v-46q-55 -20 -106 -38t-105 -37v46zM-102 948q55 20 106 38t105 37v-46q-55 -20 -106 -38t-105 -36v45z" />
    <glyph glyph-name="uni064C" unicode="&#x64c;" horiz-adv-x="0" 
d="M-29 833q20 0 37 7q-18 14 -27.5 32t-9.5 35q0 30 20 49.5t47 19.5q26 0 43.5 -16t17.5 -50q0 -27 -13.5 -47.5t-33 -34.5t-42 -21.5t-40.5 -7.5q-23 0 -47 10.5t-44 40.5l-42 -40l-21 22l63 64q19 -26 41.5 -44.5t50.5 -18.5zM4 908q0 -11 6 -25t25 -28q14 10 23.5 23
t9.5 30t-9.5 26t-20.5 9q-15 0 -24.5 -9.5t-9.5 -25.5z" />
    <glyph glyph-name="uni064D" unicode="&#x64d;" horiz-adv-x="0" 
d="M-102 -298q55 20 106 38t105 37v-46q-55 -20 -106 -38t-105 -37v46zM-102 -178q55 20 106 38t105 37v-46q-55 -19 -106 -37t-105 -37v45z" />
    <glyph glyph-name="uni064E" unicode="&#x64e;" horiz-adv-x="0" 
d="M-102 828q55 20 106 38t105 37v-46q-55 -20 -106 -38t-105 -37v46z" />
    <glyph glyph-name="uni064F" unicode="&#x64f;" horiz-adv-x="0" 
d="M-29 826q17 0 41 8q-18 14 -28 33t-10 36q0 30 20.5 50t47.5 20q28 0 46 -16t18 -51q0 -27 -13.5 -48.5t-34 -36.5t-44.5 -22.5t-45 -7.5q-28 0 -53.5 4.5t-48.5 11.5l9 34q22 -7 44 -11t51 -4zM7 904q0 -14 6.5 -27.5t25.5 -28.5q15 10 25 24t10 32q0 17 -9.5 26
t-22.5 9q-14 0 -24.5 -9.5t-10.5 -25.5z" />
    <glyph glyph-name="uni0650" unicode="&#x650;" horiz-adv-x="0" 
d="M-102 -178q55 20 106 38t105 37v-46q-55 -19 -106 -37t-105 -37v45z" />
    <glyph glyph-name="uni0651" unicode="&#x651;" horiz-adv-x="0" 
d="M1 832q-11 -14 -27 -23.5t-35 -9.5q-37 0 -59.5 23.5t-22.5 61.5v78h40v-80q0 -22 12.5 -32.5t30.5 -10.5q17 0 29 12.5t12 30.5v67h39v-67q0 -18 12 -30.5t29 -12.5q18 0 30.5 10.5t12.5 32.5v80h40v-78q0 -38 -23.5 -61.5t-58.5 -23.5q-19 0 -35 9.5t-26 23.5z" />
    <glyph glyph-name="uni0652" unicode="&#x652;" horiz-adv-x="0" 
d="M-87 791q0 36 25 61.5t62 25.5t62.5 -25.5t25.5 -61.5q0 -38 -25.5 -63.5t-62.5 -25.5t-62 25.5t-25 63.5zM-56 790q0 -24 16.5 -39.5t39.5 -15.5t39 15.5t16 39.5q0 23 -16 39t-39 16t-39.5 -16t-16.5 -39z" />
    <glyph glyph-name="uni0653" unicode="&#x653;" horiz-adv-x="0" 
d="M-185 856q24 25 45.5 34.5t45.5 9.5q15 0 38 -8.5t48 -19.5q26 -11 50.5 -20.5t44.5 -9.5q22 0 35 15t20 33l39 -20q-18 -39 -38 -55.5t-60 -16.5q-23 0 -45.5 8.5t-45.5 19.5t-45 19.5t-46 8.5q-14 0 -29 -7.5t-29 -19.5z" />
    <glyph glyph-name="uni0654" unicode="&#x654;" horiz-adv-x="0" 
d="M58 937q-11 3 -25 3q-23 0 -39 -11t-16 -34q0 -22 19 -41t61 -19h10v-37h-152v37h57q-20 15 -26.5 34.5t-6.5 30.5q0 32 23 54.5t65 22.5q15 0 36 -3z" />
    <glyph glyph-name="uni0655" unicode="&#x655;" horiz-adv-x="0" 
d="M58 -123q-11 3 -25 3q-23 0 -39 -11t-16 -34q0 -22 19 -41t61 -19h10v-37h-152v37h57q-20 15 -26.5 34.5t-6.5 30.5q0 32 23 54.5t65 22.5q15 0 36 -3z" />
    <glyph glyph-name="uni0656" unicode="&#x656;" horiz-adv-x="0" 
d="M-14 -154h35v-173h-35v173z" />
    <glyph glyph-name="uni0658" unicode="&#x658;" horiz-adv-x="0" 
d="M-25 813q-10 -10 -18 -22.5t-8 -31.5q0 -20 14 -35.5t39 -15.5q27 0 39 15.5t12 34.5q0 15 -4.5 26.5t-12.5 22.5l16 12q14 -11 22.5 -31t8.5 -40q0 -36 -22.5 -60.5t-59.5 -24.5q-42 0 -63 23.5t-21 55.5q0 26 12.5 47.5t29.5 35.5z" />
    <glyph glyph-name="uni0660" unicode="&#x660;" horiz-adv-x="499" 
d="M290 1h-83v85h83v-85z" />
    <glyph glyph-name="uni0661" unicode="&#x661;" horiz-adv-x="499" 
d="M210 618h78v-618h-78v618z" />
    <glyph glyph-name="uni0662" unicode="&#x662;" horiz-adv-x="499" 
d="M133 618h300v-76h-211l66 -542h-74z" />
    <glyph glyph-name="uni0663" unicode="&#x663;" horiz-adv-x="499" 
d="M69 618h77l12 -110q13 -2 21 -3.5t13 -1.5q38 0 51.5 31t14.5 85h71q0 -23 -5 -52t-17 -58q27 -6 41 -6q39 0 52 31t14 85h71q0 -30 -6 -61t-20 -55.5t-36.5 -40.5t-55.5 -16q-34 0 -90 23q-32 -23 -65 -23q-12 0 -46 7q14 -109 28 -225.5t28 -227.5h-75z" />
    <glyph glyph-name="uni0664" unicode="&#x664;" horiz-adv-x="499" 
d="M187 113q0 -22 31.5 -35t77.5 -13q24 0 50.5 5t54.5 13l-3 -75q-15 -6 -32.5 -10t-34 -7t-30.5 -4t-23 -1q-81 0 -124.5 23.5t-43.5 71.5q0 42 32.5 103.5t95.5 131.5q-35 17 -57 31t-35 26t-17.5 23t-4.5 22q0 16 9 44.5t31 60t60 61t96 47.5v-75q-39 -15 -65 -32
t-42.5 -32.5t-23.5 -28t-7 -18.5q0 -14 19 -25t44 -23q14 -7 28 -14.5t25 -15.5t18 -16t7 -17q0 -6 -13 -22t-30 -37q-15 -18 -31.5 -38.5t-30 -42t-22.5 -42.5t-9 -39z" />
    <glyph glyph-name="uni0665" unicode="&#x665;" horiz-adv-x="499" 
d="M253 458q38 0 70 -24t55.5 -63t36.5 -89t13 -102q0 -30 -9.5 -64.5t-30.5 -63.5t-55 -48.5t-83 -19.5q-56 0 -91 20.5t-54.5 51.5t-26 67t-6.5 67q0 51 15.5 99t41 85.5t58 60.5t66.5 23zM359 198q0 37 -8 69t-23 56t-35.5 37.5t-44.5 13.5q-27 0 -47 -16.5t-33 -41.5
t-19.5 -56t-6.5 -59q0 -23 4.5 -47.5t17 -44.5t34 -33t56.5 -13q30 0 50 13t32 32.5t17.5 43.5t5.5 46z" />
    <glyph glyph-name="uni0666" unicode="&#x666;" horiz-adv-x="499" 
d="M416 0h-74l-68 542h-210v76h277z" />
    <glyph glyph-name="uni0667" unicode="&#x667;" horiz-adv-x="499" 
d="M113 618l148 -478l144 478h71q-24 -80 -47.5 -156.5t-47 -152.5t-47.5 -153t-49 -156h-52q-52 157 -104.5 309t-104.5 309h89z" />
    <glyph glyph-name="uni0668" unicode="&#x668;" horiz-adv-x="499" 
d="M385 0l-148 478l-144 -478h-70q49 158 95 309t96 309q14 0 25.5 -0.5t25.5 -0.5q53 -158 105 -309t105 -308h-90z" />
    <glyph glyph-name="uni0669" unicode="&#x669;" horiz-adv-x="499" 
d="M314 316h-86q-44 0 -75.5 13.5t-51 35t-28.5 48.5t-9 53q0 43 14 76.5t37 56t52.5 34t60.5 11.5q33 0 58.5 -12t42.5 -31.5t27 -45t13 -52.5l59 -503h-74zM129 476q0 -45 28 -70t74 -25h74l-13 99q-2 18 -7 35t-14 29.5t-23 20.5t-34 8q-33 0 -59 -24t-26 -73z" />
    <glyph glyph-name="uni066A" unicode="&#x66a;" horiz-adv-x="501" 
d="M457 684l-348 -693l-43 27q88 177 173.5 348.5t174.5 348.5zM61 522v140h136v-140h-136zM323 52v139h136v-139h-136z" />
    <glyph glyph-name="uni066B" unicode="&#x66b;" horiz-adv-x="278" 
d="M129 -138h-77l68 240h91z" />
    <glyph glyph-name="uni066C" unicode="&#x66c;" horiz-adv-x="278" 
d="M135 137h-77l68 240h91z" />
    <glyph glyph-name="uni066D" unicode="&#x66d;" horiz-adv-x="466" 
d="M407 553l-119 -68l55 -122l-14 -11l-100 90l-102 -90l-14 11l52 122l-115 68l5 21l137 -18l29 132h16l27 -132l138 18z" />
    <glyph glyph-name="uni0670" unicode="&#x670;" horiz-adv-x="0" 
d="M-14 974h35v-173h-35v173z" />
    <glyph glyph-name="uni06C2" unicode="&#x6c2;" horiz-adv-x="457" 
d="M387 0h-171q-59 0 -100.5 17t-67 44t-37 61.5t-11.5 69.5q0 46 15 87.5t42 72.5t64.5 49t82.5 18q42 0 76 -14t57.5 -39t36.5 -60.5t13 -77.5v-228zM308 81v115q0 69 -29 107.5t-83 38.5q-22 0 -43 -9t-37.5 -26.5t-27 -41.5t-10.5 -54q0 -35 11 -60t30 -40.5t43 -22.5
t51 -7h95zM267 689q-6 1 -17 2t-19 1q-31 0 -51.5 -12.5t-20.5 -41.5q0 -14 6 -28t18.5 -25t32 -18t45.5 -7h25v-50h-209v50h74q-23 21 -32 44.5t-9 41.5q0 19 7.5 36.5t22 31t36 21.5t49.5 8q12 0 24.5 -1t23.5 -3z" />
    <glyph glyph-name="uni06C3" unicode="&#x6c3;" horiz-adv-x="457" 
d="M387 0h-171q-59 0 -100.5 17t-67 44t-37 61.5t-11.5 69.5q0 46 15 87.5t42 72.5t64.5 49t82.5 18q42 0 76 -14t57.5 -39t36.5 -60.5t13 -77.5v-228zM308 81v115q0 69 -29 107.5t-83 38.5q-22 0 -43 -9t-37.5 -26.5t-27 -41.5t-10.5 -54q0 -35 11 -60t30 -40.5t43 -22.5
t51 -7h95zM74 571q0 19 13.5 32.5t32.5 13.5t32.5 -13.5t13.5 -32.5t-13.5 -32.5t-32.5 -13.5t-32.5 13.5t-13.5 32.5zM207 571q0 19 13.5 32.5t32.5 13.5t32.5 -13.5t13.5 -32.5t-13.5 -32.5t-32.5 -13.5t-32.5 13.5t-13.5 32.5z" />
    <glyph glyph-name="uni06D4" unicode="&#x6d4;" horiz-adv-x="361" 
d="M282 0h-130q-18 0 -34.5 4t-30 12.5t-21.5 21.5t-8 32q0 10 5 30q21 -10 49 -14.5t54 -4.5h116v-81z" />
    <glyph glyph-name="uni06D5" unicode="&#x6d5;" horiz-adv-x="457" 
d="M387 0h-171q-59 0 -100.5 17t-67 44t-37 61.5t-11.5 69.5q0 46 15 87.5t42 72.5t64.5 49t82.5 18q42 0 76 -14t57.5 -39t36.5 -60.5t13 -77.5v-228zM308 81v115q0 69 -29 107.5t-83 38.5q-22 0 -43 -9t-37.5 -26.5t-27 -41.5t-10.5 -54q0 -35 11 -60t30 -40.5t43 -22.5
t51 -7h95z" />
    <glyph glyph-name="uni06F0" unicode="&#x6f0;" horiz-adv-x="499" 
d="M290 1h-83v85h83v-85z" />
    <glyph glyph-name="uni06F1" unicode="&#x6f1;" horiz-adv-x="499" 
d="M210 618h78v-618h-78v618z" />
    <glyph glyph-name="uni06F2" unicode="&#x6f2;" horiz-adv-x="499" 
d="M133 618h300v-76h-211l66 -542h-74z" />
    <glyph glyph-name="uni06F3" unicode="&#x6f3;" horiz-adv-x="499" 
d="M69 618h77l12 -110q13 -2 21 -3.5t13 -1.5q38 0 51.5 31t14.5 85h71q0 -23 -5 -52t-17 -58q27 -6 41 -6q39 0 52 31t14 85h71q0 -30 -6 -61t-20 -55.5t-36.5 -40.5t-55.5 -16q-34 0 -90 23q-32 -23 -65 -23q-12 0 -46 7q14 -109 28 -225.5t28 -227.5h-75z" />
    <glyph glyph-name="uni06F4" unicode="&#x6f4;" horiz-adv-x="550" 
d="M205 0h-81l-79 618h80l14 -129q26 -8 54.5 -13t62.5 -10q-23 18 -40 49t-17 63q0 46 29.5 74.5t83.5 28.5q6 0 15.5 -0.5t18.5 -2.5v-52q-6 1 -12 1h-10q-26 0 -46 -14.5t-20 -49.5q0 -18 13.5 -45.5t43.5 -50.5q54 4 79.5 34.5t30.5 84.5h66q-2 -48 -17.5 -82t-40 -55.5
t-56.5 -31.5t-67 -10q-28 0 -74 6t-89 17z" />
    <glyph glyph-name="uni06F5" unicode="&#x6f5;" horiz-adv-x="550" 
d="M279 617q40 0 77 -33t65 -90t45 -133t17 -161q0 -45 -6.5 -84t-19.5 -68.5t-33 -46t-47 -16.5q-19 0 -48.5 8t-52.5 25q-26 -18 -49 -25t-44 -7q-33 0 -55 17t-35 45.5t-18.5 65t-5.5 76.5q0 86 18.5 163.5t48 136t67 93t76.5 34.5zM409 228q0 60 -13.5 116.5t-34 100.5
t-44.5 71t-45 27q-25 0 -49 -29.5t-42.5 -76t-30 -102.5t-11.5 -108q0 -85 20.5 -122.5t66.5 -37.5q15 0 27.5 4.5t26.5 12.5q14 -8 25 -13t25 -5q35 0 57 36.5t22 125.5z" />
    <glyph glyph-name="uni06F6" unicode="&#x6f6;" horiz-adv-x="550" 
d="M472 332q-59 -26 -106 -59t-87 -74.5t-74.5 -92t-67.5 -111.5q-17 11 -28.5 17.5t-28.5 17.5q37 72 81 134.5t98 116.5q-44 15 -71.5 36.5t-42.5 45t-20.5 47t-5.5 41.5q0 37 13.5 70t38.5 57.5t60.5 38.5t79.5 14q20 0 52 -4t58 -12v-69q-23 8 -45.5 12t-39.5 4
q-24 0 -48.5 -6.5t-45 -20.5t-33 -37t-12.5 -57q0 -40 28 -73t83 -51q31 24 64 42.5t68 34.5z" />
    <glyph glyph-name="uni06F7" unicode="&#x6f7;" horiz-adv-x="499" 
d="M113 618l148 -478l144 478h71q-24 -80 -47.5 -156.5t-47 -152.5t-47.5 -153t-49 -156h-52q-52 157 -104.5 309t-104.5 309h89z" />
    <glyph glyph-name="uni06F8" unicode="&#x6f8;" horiz-adv-x="499" 
d="M385 0l-148 478l-144 -478h-70q49 158 95 309t96 309q14 0 25.5 -0.5t25.5 -0.5q53 -158 105 -309t105 -308h-90z" />
    <glyph glyph-name="uni06F9" unicode="&#x6f9;" horiz-adv-x="499" 
d="M314 316h-86q-44 0 -75.5 13.5t-51 35t-28.5 48.5t-9 53q0 43 14 76.5t37 56t52.5 34t60.5 11.5q33 0 58.5 -12t42.5 -31.5t27 -45t13 -52.5l59 -503h-74zM129 476q0 -45 28 -70t74 -25h74l-13 99q-2 18 -7 35t-14 29.5t-23 20.5t-34 8q-33 0 -59 -24t-26 -73z" />
    <glyph glyph-name="uni2002" unicode="&#x2002;" horiz-adv-x="500" 
 />
    <glyph glyph-name="uni2003" unicode="&#x2003;" horiz-adv-x="1000" 
 />
    <glyph glyph-name="uni2009" unicode="&#x2009;" horiz-adv-x="100" 
 />
    <glyph glyph-name="uni200A" unicode="&#x200a;" horiz-adv-x="20" 
 />
    <glyph glyph-name="uni200C" unicode="&#x200c;" horiz-adv-x="0" 
d="M-53 924l53 -53l52 52l16 -16l-52 -52l52 -52l-16 -16l-52 51l-53 -52l-16 17l52 52l-52 52z" />
    <glyph glyph-name="uni200D" unicode="&#x200d;" horiz-adv-x="0" 
d="M77 798v46h-153v-46h-23v69h199v-69h-23z" />
    <glyph glyph-name="uni200E" unicode="&#x200e;" horiz-adv-x="0" 
d="M10 907l16 17l69 -69l-69 -69l-16 17l41 41h-126v23h126z" />
    <glyph glyph-name="uni200F" unicode="&#x200f;" horiz-adv-x="0" 
d="M-10 803l-16 -16l-69 68l69 69l16 -16l-41 -41h127v-23h-126z" />
    <glyph glyph-name="endash" unicode="&#x2013;" horiz-adv-x="500" 
d="M500 204h-500v72h500v-72z" />
    <glyph glyph-name="emdash" unicode="&#x2014;" horiz-adv-x="1000" 
d="M0 276h1000v-72h-1000v72z" />
    <glyph glyph-name="quoteleft" unicode="&#x2018;" horiz-adv-x="278" 
d="M142 708h76l-67 -240h-91z" />
    <glyph glyph-name="quoteright" unicode="&#x2019;" horiz-adv-x="278" 
d="M136 468h-76l67 240h91z" />
    <glyph glyph-name="quotesinglbase" unicode="&#x201a;" horiz-adv-x="278" 
d="M136 -138h-76l67 240h91z" />
    <glyph glyph-name="quotedblleft" unicode="&#x201c;" horiz-adv-x="519" 
d="M169 708h76l-67 -240h-91zM356 708h76l-67 -240h-91z" />
    <glyph glyph-name="quotedblright" unicode="&#x201d;" horiz-adv-x="519" 
d="M163 468h-76l67 240h91zM350 468h-76l67 240h91z" />
    <glyph glyph-name="quotedblbase" unicode="&#x201e;" horiz-adv-x="519" 
d="M163 -138h-76l67 240h91zM350 -138h-76l67 240h91z" />
    <glyph glyph-name="dagger" unicode="&#x2020;" 
d="M317 505h204v-66h-204v-565h-78v565h-204v66h204v203h78v-203z" />
    <glyph glyph-name="daggerdbl" unicode="&#x2021;" 
d="M317 516h198v-66h-198v-318h198v-66h-198v-192h-78v192h-198v66h198v318h-198v66h198v192h78v-192z" />
    <glyph glyph-name="bullet" unicode="&#x2022;" horiz-adv-x="500" 
d="M73 354q0 37 14 69t38 56t56 38t69 14t69 -14t56 -38t38 -56t14 -69t-14 -69t-38 -56t-56 -38t-69 -14t-69 14t-56 38t-38 56t-14 69z" />
    <glyph glyph-name="ellipsis" unicode="&#x2026;" horiz-adv-x="1000" 
d="M167 114q25 0 42.5 -17.5t17.5 -42.5t-18.5 -42.5t-41.5 -17.5t-41.5 17.5t-18.5 42.5t17.5 42.5t42.5 17.5zM500 114q25 0 42.5 -17.5t17.5 -42.5t-18.5 -42.5t-41.5 -17.5t-41.5 17.5t-18.5 42.5t17.5 42.5t42.5 17.5zM833 114q25 0 42.5 -17.5t17.5 -42.5t-18.5 -42.5
t-41.5 -17.5t-41.5 17.5t-18.5 42.5t17.5 42.5t42.5 17.5z" />
    <glyph glyph-name="uni202A" unicode="&#x202a;" horiz-adv-x="0" 
d="M-28 844h-57v23h57v-23zM1 867h50l-41 40l16 17l69 -69l-69 -69l-16 17l41 41h-50v23z" />
    <glyph glyph-name="uni202B" unicode="&#x202b;" horiz-adv-x="0" 
d="M28 867h57v-23h-57v23zM-1 844h-49l40 -41l-16 -16l-69 68l69 69l16 -16l-41 -41h50v-23z" />
    <glyph glyph-name="uni202C" unicode="&#x202c;" horiz-adv-x="0" 
d="M-52 846l-17 16l69 69l69 -69l-17 -16l-41 41v-102h-23v101z" />
    <glyph glyph-name="uni202D" unicode="&#x202d;" horiz-adv-x="0" 
d="M-37 907l16 17l69 -69l-69 -69l-16 17l41 41h-107v23h106zM28 907l16 17l69 -69l-69 -69l-16 17l53 52z" />
    <glyph glyph-name="uni202E" unicode="&#x202e;" horiz-adv-x="0" 
d="M38 827l-17 -17l-68 69l68 69l17 -17l-41 -41h107v-23h-107zM-28 827l-16 -17l-69 69l69 69l16 -17l-52 -52z" />
    <glyph glyph-name="perthousand" unicode="&#x2030;" horiz-adv-x="1018" 
d="M18 563q0 32 12.5 60.5t34 50t50 34t60.5 12.5t60.5 -12.5t50 -34t34 -50t12.5 -60.5q0 -33 -12.5 -61.5t-33.5 -49.5t-49.5 -33.5t-61.5 -12.5t-61.5 12.5t-49.5 33.5t-33.5 49.5t-12.5 61.5zM84 563q0 -18 7.5 -34.5t20 -29t29 -20t34.5 -7.5t34.5 7.5t29 20t20 29
t7.5 34.5t-7.5 34.5t-20 29t-29 20t-34.5 7.5t-34.5 -7.5t-29 -20t-20 -29t-7.5 -34.5zM326 145q0 32 12.5 60.5t34 50t50 34t60.5 12.5t60.5 -12.5t50 -34t34 -50t12.5 -60.5q0 -33 -12.5 -61.5t-33.5 -49.5t-49.5 -33.5t-61.5 -12.5t-61.5 12.5t-49.5 33.5t-33.5 49.5
t-12.5 61.5zM392 145q0 -18 7.5 -34.5t20 -29t29 -20t34.5 -7.5t34.5 7.5t29 20t20 29t7.5 34.5t-7.5 34.5t-20 29t-29 20t-34.5 7.5t-34.5 -7.5t-29 -20t-20 -29t-7.5 -34.5zM686 145q0 32 12.5 60.5t34 50t50 34t60.5 12.5t60.5 -12.5t50 -34t34 -50t12.5 -60.5
q0 -33 -12.5 -61.5t-33.5 -49.5t-49.5 -33.5t-61.5 -12.5t-61.5 12.5t-49.5 33.5t-33.5 49.5t-12.5 61.5zM752 144q0 -18 7.5 -34.5t20 -29t29 -20t34.5 -7.5t34.5 7.5t29 20t20 29t7.5 34.5t-7.5 34.5t-20 29t-29 20t-34.5 7.5t-34.5 -7.5t-29 -20t-20 -29t-7.5 -34.5z
M525 740l55 -32l-444 -740l-55 32z" />
    <glyph glyph-name="guilsinglleft" unicode="&#x2039;" horiz-adv-x="314" 
d="M139 240l117 -178l-55 -36l-143 214l143 214l55 -36z" />
    <glyph glyph-name="guilsinglright" unicode="&#x203a;" horiz-adv-x="314" 
d="M175 240l-117 178l55 36l143 -214l-143 -214l-55 36z" />
    <glyph glyph-name="fraction" unicode="&#x2044;" horiz-adv-x="167" 
d="M278 740l55 -32l-444 -740l-55 32z" />
    <glyph glyph-name="fraction" unicode="&#x2215;" horiz-adv-x="167" 
d="M278 740l55 -32l-444 -740l-55 32z" />
    <glyph glyph-name="Euro" unicode="&#x20ac;" 
d="M504 614q-23 17 -54.5 27t-73.5 10q-67 0 -116 -43.5t-71 -128.5h277l-15 -59h-273q-2 -18 -3.5 -37.5t-1.5 -39.5q0 -14 0.5 -27.5t1.5 -27.5h242l-16 -57h-219q14 -84 55 -130t114 -46q42 0 73 18t53 44l46 -45q-26 -35 -73 -59.5t-105 -24.5q-103 0 -166 61t-83 182
h-73l18 57h48q-1 14 -1.5 28.5t-0.5 29.5q0 20 1 38.5t3 35.5h-66l19 59h58q14 59 40 104t62 75.5t79.5 46t93.5 15.5q21 0 42.5 -3t41 -8t36 -11.5t28.5 -13.5z" />
    <glyph glyph-name="afii61289" unicode="&#x2113;" horiz-adv-x="510" 
d="M423 42q-62 -56 -132 -56q-57 0 -93.5 31.5t-36.5 98.5v116l-58 -63h-3l-27 38l88 85v265q0 43 10.5 76t28 56t41.5 35t51 12q51 0 82 -35t31 -96q0 -76 -43.5 -156t-131.5 -168v-154q0 -26 7 -43t18.5 -27t25 -14t26.5 -4q21 0 44 9t46 30h2zM347 600q0 38 -16 62.5
t-39 24.5t-42.5 -28t-19.5 -91v-226q58 66 87.5 133t29.5 125z" />
    <glyph glyph-name="trademark" unicode="&#x2122;" horiz-adv-x="990" 
d="M194 642h-130v66h326v-66h-130v-346h-66v346zM473 708h105l123 -313l123 313h102v-412h-66v346h-2l-136 -346h-45l-136 346h-2v-346h-66v412z" />
    <glyph glyph-name="estimated" unicode="&#x212e;" horiz-adv-x="600" 
d="M157 259v-181q59 -59 145 -59q63 0 109 28.5t84 91.5l35 -21q-23 -36 -46.5 -61.5t-51 -42t-59.5 -24t-71 -7.5q-59 0 -106.5 21.5t-81.5 59t-52 87.5t-18 108t18 108.5t52 87.5t81.5 58.5t106.5 21.5q58 0 105.5 -20.5t81.5 -57t53 -87t19 -111.5h-404zM448 295v145
q-63 60 -147 60t-144 -60v-145h291z" />
    <glyph glyph-name="partialdiff" unicode="&#x2202;" horiz-adv-x="496" 
d="M455 363q0 -55 -8 -120.5t-32 -122t-68.5 -94.5t-116.5 -38q-47 0 -84 18.5t-62.5 49.5t-39 71.5t-13.5 84.5q0 43 13 82t38 68t61 46t82 17q49 0 92 -23t74 -61q0 13 0.5 26t0.5 26q0 42 -8.5 89.5t-29 88.5t-55 68t-86.5 27q-35 0 -60.5 -13t-51.5 -33l-36 43
q32 28 67 43t78 15q48 0 85 -15.5t64 -42.5t45.5 -62.5t29.5 -75.5t16 -81.5t5 -80.5zM386 278q-27 36 -67 63.5t-88 27.5q-34 0 -59.5 -13t-43 -35t-26 -51t-8.5 -60q0 -30 8.5 -60t26 -54.5t43 -39.5t59.5 -15q43 0 72 24t47 60t26 77t10 76z" />
    <glyph glyph-name="uni2206" unicode="&#x2206;" horiz-adv-x="670" 
d="M15 0l281 712h74l287 -712h-642zM332 645l-226 -583h455z" />
    <glyph glyph-name="product" unicode="&#x220f;" horiz-adv-x="711" 
d="M575 -214v938h-438v-938h-66v1000h570v-1000h-66z" />
    <glyph glyph-name="summation" unicode="&#x2211;" horiz-adv-x="604" 
d="M25 -214v55l329 448l-315 441v56h527v-62h-442l309 -435l-328 -442h473v-61h-553z" />
    <glyph glyph-name="minus" unicode="&#x2212;" horiz-adv-x="666" 
d="M594 336v-66h-522v66h522z" />
    <glyph glyph-name="radical" unicode="&#x221a;" horiz-adv-x="493" 
d="M292 -214h-66l-164 340l-46 -22l-24 50l100 48l158 -332l189 916h63z" />
    <glyph glyph-name="infinity" unicode="&#x221e;" horiz-adv-x="741" 
d="M700 252q0 -31 -10 -58t-28 -47t-44 -31.5t-58 -11.5q-29 0 -55 9.5t-49.5 25t-44.5 34.5t-40 38q-22 -18 -43 -37t-43.5 -34.5t-48 -25.5t-55.5 -10q-32 0 -57.5 11t-44 30.5t-28.5 46t-10 57.5q0 30 9.5 57t27.5 47.5t43.5 32t57.5 11.5q29 0 55.5 -10.5t50 -27t45 -36
t41.5 -38.5q20 19 40.5 39t43 36.5t48 27t55.5 10.5q32 0 58 -11t45 -30.5t29 -46.5t10 -58zM643 249q0 38 -20.5 65t-62.5 27q-21 0 -41.5 -9.5t-39.5 -24t-37 -30.5t-33 -29q16 -14 33.5 -29t37 -28t40 -21t43.5 -8q38 0 59 25t21 62zM333 249q-15 13 -33 28.5t-38.5 29.5
t-41.5 23.5t-42 9.5q-19 0 -34 -7.5t-25 -20t-15.5 -28.5t-5.5 -34q0 -38 22 -63t62 -25q21 0 41.5 8.5t40 21.5t37.5 28.5t32 28.5z" />
    <glyph glyph-name="integral" unicode="&#x222b;" horiz-adv-x="543" 
d="M406 736q0 -17 -10.5 -25.5t-26.5 -8.5q-14 0 -21 6t-11.5 13.5t-8.5 14t-11 6.5q-12 0 -19 -13t-10.5 -32.5t-5 -42.5t-1 -44.5t1 -37.5t0.5 -21v-504q0 -32 -1 -76.5t-12 -85.5t-36 -69.5t-73 -28.5q-21 0 -40.5 11t-19.5 36q0 14 9.5 23t23.5 9q13 0 20 -6t11.5 -13
t8.5 -13t10 -6q13 0 20 22.5t9.5 51t2.5 54v31.5l1 21v495q0 23 -1 53t0.5 61.5t7 61.5t19 54t36 38.5t57.5 14.5q11 0 23.5 -2.5t23 -8.5t17 -15.5t6.5 -23.5z" />
    <glyph glyph-name="approxequal" unicode="&#x2248;" horiz-adv-x="593" 
d="M559 402q-3 -26 -11.5 -51t-23.5 -44t-36.5 -30.5t-51.5 -11.5q-33 0 -70 11.5t-74.5 25t-72 25t-61.5 11.5q-34 0 -54 -24.5t-25 -55.5h-45q3 26 11.5 51t23.5 44.5t37 31.5t52 12q33 0 69.5 -11.5t73.5 -25t72 -25t64 -11.5q36 0 54 23t25 55h43zM559 232
q-3 -26 -11.5 -51t-23.5 -44.5t-37 -31t-52 -11.5q-33 0 -70 11.5t-74 25t-71.5 25t-61.5 11.5q-34 0 -54 -24.5t-25 -55.5h-45q4 26 12.5 51t22.5 45t35.5 32t52.5 12q33 0 70 -11.5t74 -25t72 -25t64 -11.5q35 0 53 23t25 55h44z" />
    <glyph glyph-name="notequal" unicode="&#x2260;" horiz-adv-x="593" 
d="M260 120l-76 -144l-52 27l62 117h-149v60h181l68 130h-249v60h282l77 147l52 -28l-63 -119h154v-60h-186l-69 -130h255v-60h-287z" />
    <glyph glyph-name="lessequal" unicode="&#x2264;" horiz-adv-x="593" 
d="M45 263v65l502 189v-65l-419 -157l419 -155v-65zM45 -27v59h502v-59h-502z" />
    <glyph glyph-name="greaterequal" unicode="&#x2265;" horiz-adv-x="593" 
d="M45 75v65l420 155l-420 157v65l502 -189v-65zM45 -27v59h502v-59h-502z" />
    <glyph glyph-name="lozenge" unicode="&#x25ca;" horiz-adv-x="593" 
d="M327 -35h-63l-169 391l169 391h63l171 -391zM296 681l-136 -325l136 -325l137 325z" />
    <glyph glyph-name="uni25CC" unicode="&#x25cc;" horiz-adv-x="402" 
d="M28 167q0 24 23 24q25 0 25 -24q0 -23 -25 -23q-23 0 -23 23zM327 167q0 24 23 24q24 0 24 -24q0 -23 -24 -23q-23 0 -23 23zM177 317q0 24 24 24t24 -24q0 -25 -24 -25t-24 25zM177 18q0 24 24 24t24 -24t-24 -24t-24 24zM308 243q0 23 24 23q23 0 23 -23q0 -25 -23 -25
q-24 0 -24 25zM308 92q0 24 24 24q23 0 23 -24q0 -23 -23 -23q-24 0 -24 23zM47 243q0 23 23 23q25 0 25 -23q0 -25 -25 -25q-23 0 -23 25zM47 92q0 24 23 24q25 0 25 -24q0 -23 -25 -23q-23 0 -23 23zM103 298q0 24 22 24q25 0 25 -24t-25 -24q-22 0 -22 24zM251 298
q0 24 25 24q23 0 23 -24t-23 -24q-25 0 -25 24zM103 36q0 25 22 25q25 0 25 -25q0 -23 -25 -23q-22 0 -22 23zM251 36q0 25 25 25q23 0 23 -25q0 -23 -23 -23q-25 0 -25 23z" />
    <glyph glyph-name="uni274A" unicode="&#x274a;" horiz-adv-x="380" 
d="M148 565l-56 -79l-16 10l54 78l-90 30l7 20l91 -31v99h19v-100l93 31l6 -18l-90 -32l56 -76l-15 -12z" />
    <glyph glyph-name="fi" unicode="&#xfb01;" horiz-adv-x="537" 
d="M306 402h-114v-402h-78v402h-102v66h102v105q0 43 8 78.5t27.5 61.5t51.5 40.5t79 14.5q15 0 32 -3t28 -9l-11 -70q-27 10 -53 10q-30 0 -47 -10.5t-25.5 -29t-10 -44.5t-1.5 -56v-88h114v-66zM378 468h78v-468h-78v468zM360 651q0 23 16.5 40t40.5 17t40.5 -17t16.5 -40
q0 -25 -16 -41t-41 -16t-41 16t-16 41z" />
    <glyph glyph-name="fl" unicode="&#xfb02;" horiz-adv-x="537" 
d="M114 402h-102v66h102v105q0 43 8 78.5t27.5 61.5t51.5 40.5t79 14.5q15 0 32 -3t28 -9l-11 -70q-27 10 -53 10q-30 0 -47 -10.5t-25.5 -29t-10 -44.5t-1.5 -56v-88h114v-66h-114v-402h-78v402zM378 756h78v-756h-78v756z" />
    <glyph glyph-name="uniFD3E" unicode="&#xfd3e;" horiz-adv-x="611" 
d="M562 274q0 -30 -65 -53v-60q0 -19 -9 -19q-8 0 -15 7l-84 64q-9 6 -18 6q-11 0 -11 -9q0 -8 12 -21l69 -77q5 -8 5 -13q0 -12 -22 -9l-48 7q-1 -2 -1 -8q0 -41 46 -120q19 -32 34.5 -56t28.5 -41q63 -75 63 -76q0 -11 -10 -11q-12 0 -65 44q-57 49 -108 113
q-32 40 -53.5 78.5t-32.5 76.5l-74 -14h-6q-11 0 -11 9q0 7 6 16l62 86q9 9 9 19q0 12 -10 12q-11 0 -24 -13l-71 -63q-14 -11 -20 -11q-13 0 -13 26v57q-16 3 -39 20q-26 20 -26 33q0 25 65 55v64q0 18 13 18q6 0 17 -8l79 -69q11 -8 17 -8q11 0 11 11q0 8 -4 12l-62 88
q-8 11 -8 19q0 10 15 10q5 0 7 -1l71 -11q31 88 94 166q45 56 107 108q50 38 55 38q13 0 13 -10q0 -6 -64 -79q-28 -31 -66 -104q-42 -78 -42 -112q0 -6 1 -7l50 4q16 1 16 -8t-12 -22l-68 -77q-5 -8 -5 -11q0 -10 12 -10q8 0 12 4l82 61q12 9 20 9q10 0 10 -14v-60
q21 -6 41 -20q24 -18 24 -36zM407 433l-2 2l-67 -12q5 20 9.5 34.5t6.5 22.5q10 34 22 56v53q-21 -20 -51 -81q-28 -60 -30 -83l-70 16l48 -75h4v32h24l20 34h2v-34h23v-29zM536 275q0 10 -27 24q-26 12 -38 12v58l-76 -57l1 -2h44v-22q17 -2 31 -13q-20 -11 -31 -11v-21
h-45l-3 -2l79 -58v57q7 1 16 4.5t21 8.5q28 13 28 22zM367 277q0 21 -16.5 36.5t-37.5 15.5t-37 -15.5t-16 -36.5t16 -36.5t37 -15.5t37.5 15.5t16.5 36.5zM231 308v2l-79 60v-59q-7 -1 -16 -4.5t-21 -8.5q-28 -13 -28 -22q0 -11 27 -24q25 -12 38 -12v-58l77 57v2h-46v22
q-17 2 -31 13q20 11 31 11v21h48zM408 118l-61 64v-29h-23v-34h-2l-20 34h-24v32h-2l-50 -75l70 16q1 -23 30 -84q29 -60 51 -80v53q-17 36 -38 113l67 -12z" />
    <glyph glyph-name="uniFD3F" unicode="&#xfd3f;" horiz-adv-x="611" 
d="M550 274q0 -13 -26 -33q-27 -17 -39 -20v-57q0 -26 -13 -26q-6 0 -20 11l-71 63q-13 13 -24 13q-10 0 -10 -12q0 -10 9 -19l62 -86q6 -9 6 -16q0 -9 -11 -9h-6l-74 14q-23 -75 -85 -155q-48 -60 -109 -113q-53 -44 -65 -44q-10 0 -10 11q0 1 63 76q13 17 28.5 41t34.5 56
q46 79 46 120q0 6 -1 8l-48 -7q-22 -3 -22 9q0 5 5 13l69 77q12 13 12 21q0 9 -11 9t-18 -6l-84 -64q-7 -7 -15 -7q-9 0 -9 19v60q-65 23 -65 53q0 18 25 36q20 14 40 20v60q0 14 10 14q6 0 20 -9l82 -61q4 -4 12 -4q12 0 12 10q0 3 -5 11l-68 77q-12 13 -12 22t16 8l50 -4
q1 1 1 7q0 34 -42 112q-38 73 -66 104q-64 73 -64 79q0 10 13 10q7 0 54 -38q60 -50 108 -108q63 -78 94 -166l71 11q2 1 8 1q14 0 14 -10q0 -8 -8 -19l-62 -88q-4 -4 -4 -12q0 -11 10 -11q7 0 18 8l79 69q11 8 17 8q13 0 13 -18v-64q65 -30 65 -55zM386 441l-70 -16
q-1 12 -9 33t-22 50q-29 63 -50 81v-53q17 -36 38 -113l-67 12l-2 -2l61 -64v29h23v34h2l20 -34h24v-32h4zM524 276q0 8 -27 22q-13 5 -22 8.5t-16 4.5v59l-79 -60v-2h48v-21q11 0 31 -11q-14 -11 -31 -13v-22h-46v-2l77 -57v58q12 0 38 12q27 13 27 24zM351 277
q0 21 -15.5 36.5t-37.5 15.5q-21 0 -37.5 -15.5t-16.5 -36.5t16.5 -36.5t37.5 -15.5q22 0 37.5 15.5t15.5 36.5zM219 241l-3 2h-45v21q-11 0 -31 11q14 11 31 13v22h44l1 2l-76 57v-58q-13 0 -38 -12q-27 -14 -27 -24q0 -9 28 -22q12 -5 21 -8.5t16 -4.5v-57zM385 110
l-50 75h-2v-32h-24l-20 -34h-2v34h-23v29l-61 -64l2 -2l67 12l-16 -58q-5 -16 -10.5 -30t-11.5 -25v-53q21 20 50 80q30 62 31 84z" />
    <glyph glyph-name="uni06C0" horiz-adv-x="457" 
d="M387 0h-171q-59 0 -100.5 17t-67 44t-37 61.5t-11.5 69.5q0 46 15 87.5t42 72.5t64.5 49t82.5 18q42 0 76 -14t57.5 -39t36.5 -60.5t13 -77.5v-228zM308 81v115q0 69 -29 107.5t-83 38.5q-22 0 -43 -9t-37.5 -26.5t-27 -41.5t-10.5 -54q0 -35 11 -60t30 -40.5t43 -22.5
t51 -7h95zM267 689q-6 1 -17 2t-19 1q-31 0 -51.5 -12.5t-20.5 -41.5q0 -14 6 -28t18.5 -25t32 -18t45.5 -7h25v-50h-209v50h74q-23 21 -32 44.5t-9 41.5q0 19 7.5 36.5t22 31t36 21.5t49.5 8q12 0 24.5 -1t23.5 -3z" />
    <glyph glyph-name="uniFBA5" horiz-adv-x="461" 
d="M308 81v115q0 69 -28.5 107.5t-82.5 38.5q-23 0 -44 -9t-38 -26.5t-27 -41.5t-10 -54q0 -35 11 -60t30 -40.5t43 -22.5t51 -7h95zM468 81q23 0 23 -18v-39q0 -24 -23 -24h-252q-59 0 -100.5 17t-67 44t-37 61.5t-11.5 69.5q0 46 15.5 87.5t42.5 72.5t64.5 49t81.5 18
q42 0 76 -14t57.5 -39t36.5 -60.5t13 -77.5v-147h81zM267 689q-6 1 -17 2t-19 1q-31 0 -51.5 -12.5t-20.5 -41.5q0 -14 6 -28t18.5 -25t32 -18t45.5 -7h25v-50h-209v50h74q-23 21 -32 44.5t-9 41.5q0 19 7.5 36.5t22 31t36 21.5t49.5 8q12 0 24.5 -1t23.5 -3z" />
    <glyph glyph-name="uni0640.narrow" horiz-adv-x="64" 
d="M-7 0q-23 0 -23 18v39q0 24 23 24h78q23 0 23 -19v-38q0 -24 -23 -24h-78z" />
    <glyph glyph-name="uni0640.long" horiz-adv-x="233" 
d="M-7 0q-23 0 -23 18v39q0 24 23 24h247q23 0 23 -19v-38q0 -24 -23 -24h-247z" />
    <glyph glyph-name="uni0615" horiz-adv-x="0" 
d="M-31 574h44v232h43v-155q16 22 39 34t46 12q45 0 66.5 -28t21.5 -70v-69h-260v44zM186 597q0 32 -13.5 44.5t-35.5 12.5q-26 0 -50.5 -21.5t-29.5 -58.5h129v23z" />
    <glyph glyph-name="uni064B0651" horiz-adv-x="0" 
d="M1 832q-11 -14 -27 -23.5t-35 -9.5q-37 0 -59.5 23.5t-22.5 61.5v78h40v-80q0 -22 12.5 -32.5t30.5 -10.5q17 0 29 12.5t12 30.5v67h39v-67q0 -18 12 -30.5t29 -12.5q18 0 30.5 10.5t12.5 32.5v80h40v-78q0 -38 -23.5 -61.5t-58.5 -23.5q-19 0 -35 9.5t-26 23.5z
M-104 1091q55 20 106 38t105 37v-46q-55 -20 -106 -38t-105 -37v46zM-104 1211q55 20 106 38t105 37v-46q-55 -20 -106 -38t-105 -36v45z" />
    <glyph glyph-name="uni06540651" horiz-adv-x="0" 
d="M58 937q-11 3 -25 3q-23 0 -39 -11t-16 -34q0 -22 19 -41t61 -19h10v-37h-152v37h57q-20 15 -26.5 34.5t-6.5 30.5q0 32 23 54.5t65 22.5q15 0 36 -3zM-102 1078q55 20 106 38t105 37v-46q-55 -20 -106 -38t-105 -37v46zM-102 1198q55 20 106 38t105 37v-46
q-55 -20 -106 -38t-105 -36v45z" />
    <glyph glyph-name="uni0654064E" horiz-adv-x="0" 
d="M58 937q-11 3 -25 3q-23 0 -39 -11t-16 -34q0 -22 19 -41t61 -19h10v-37h-152v37h57q-20 15 -26.5 34.5t-6.5 30.5q0 32 23 54.5t65 22.5q15 0 36 -3zM-101 1078q55 20 106 38t105 37v-46q-55 -20 -106 -38t-105 -37v46z" />
    <glyph glyph-name="uni0654064C" horiz-adv-x="0" 
d="M58 937q-11 3 -25 3q-23 0 -39 -11t-16 -34q0 -22 19 -41t61 -19h10v-37h-152v37h57q-20 15 -26.5 34.5t-6.5 30.5q0 32 23 54.5t65 22.5q15 0 36 -3zM-29 1083q20 0 37 7q-18 14 -27.5 32t-9.5 35q0 30 20 49.5t47 19.5q26 0 43.5 -16t17.5 -50q0 -27 -13.5 -47.5
t-33 -34.5t-42 -21.5t-40.5 -7.5q-23 0 -47 10.5t-44 40.5l-42 -40l-21 22l63 64q19 -26 41.5 -44.5t50.5 -18.5zM4 1158q0 -11 6 -25t25 -28q14 10 23.5 23t9.5 30t-9.5 26t-20.5 9q-15 0 -24.5 -9.5t-9.5 -25.5z" />
    <glyph glyph-name="uni0654064F" horiz-adv-x="0" 
d="M58 937q-11 3 -25 3q-23 0 -39 -11t-16 -34q0 -22 19 -41t61 -19h10v-37h-152v37h57q-20 15 -26.5 34.5t-6.5 30.5q0 32 23 54.5t65 22.5q15 0 36 -3zM-26 1062q17 0 41 8q-18 14 -28 33t-10 36q0 30 20.5 50t47.5 20q28 0 46 -16t18 -51q0 -27 -13.5 -48.5t-34 -36.5
t-44.5 -22.5t-45 -7.5q-28 0 -53.5 4.5t-48.5 11.5l9 34q22 -7 44 -11t51 -4zM10 1140q0 -14 6.5 -27.5t25.5 -28.5q15 10 25 24t10 32q0 17 -9.5 26t-22.5 9q-14 0 -24.5 -9.5t-10.5 -25.5z" />
    <glyph glyph-name="uni06540652" horiz-adv-x="0" 
d="M58 937q-11 3 -25 3q-23 0 -39 -11t-16 -34q0 -22 19 -41t61 -19h10v-37h-152v37h57q-20 15 -26.5 34.5t-6.5 30.5q0 32 23 54.5t65 22.5q15 0 36 -3zM-87 1121q0 36 25 61.5t62 25.5t62.5 -25.5t25.5 -61.5q0 -38 -25.5 -63.5t-62.5 -25.5t-62 25.5t-25 63.5zM-56 1120
q0 -24 16.5 -39.5t39.5 -15.5t39 15.5t16 39.5q0 23 -16 39t-39 16t-39.5 -16t-16.5 -39z" />
    <glyph glyph-name="uni06550650" horiz-adv-x="0" 
d="M58 -123q-11 3 -25 3q-23 0 -39 -11t-16 -34q0 -22 19 -41t61 -19h10v-37h-152v37h57q-20 15 -26.5 34.5t-6.5 30.5q0 32 23 54.5t65 22.5q15 0 36 -3zM-102 -435q55 20 106 38t105 37v-46q-55 -19 -106 -37t-105 -37v45z" />
    <glyph glyph-name="uni0655064D" horiz-adv-x="0" 
d="M58 -123q-11 3 -25 3q-23 0 -39 -11t-16 -34q0 -22 19 -41t61 -19h10v-37h-152v37h57q-20 15 -26.5 34.5t-6.5 30.5q0 32 23 54.5t65 22.5q15 0 36 -3zM-102 -547q55 20 106 38t105 37v-46q-55 -20 -106 -38t-105 -37v46zM-102 -427q55 20 106 38t105 37v-46
q-55 -19 -106 -37t-105 -37v45z" />
    <glyph glyph-name="uni064406440647" horiz-adv-x="1073" 
d="M789 0q-45 0 -77 18t-44 60q-11 -25 -24 -40.5t-28.5 -23.5t-33.5 -11t-38 -3h-330q-59 0 -100.5 17t-67 44t-37 61.5t-11.5 69.5q0 46 15.5 87.5t42.5 72.5t64.5 49t81.5 18q42 0 76 -14t57.5 -39t36.5 -60.5t13 -77.5v-147h153q36 0 48.5 20.5t12.5 55.5v560h79v-518
q0 -25 5.5 -46.5t19 -37.5t35.5 -25t54 -9h122v636h79v-717h-204zM306 81v115q0 69 -28.5 107.5t-82.5 38.5q-23 0 -44 -9t-38 -26.5t-27 -41.5t-10 -54q0 -35 11 -60t30 -40.5t43 -22.5t51 -7h95z" />
    </font>
</defs>
</svg>
